Sign Up   |   Sign In  

Announcements

Want to support us?
Buy a RapidRAR account from our resellers:
Buy or renew a NitroFlare account via THIS LINK

04/17

2017

2

Comments

Into the Badlands S02E05 1080p WEB-DL DD5 1 H264-RARBG
[RR/NF/UL/UR]
Size: 1.7GB mkv H264 (HIGH) / AC3  HD  1916x1076

Into the Badlands
Click on the image to see full size
[RR/NF/UL/UR] Into the Badlands S02E05 1080p WEB-DL DD5 1 H264-RARBG (1.7GB) - Snapshot 1
File Information
[URL=http://imagecurl.com/viewer.php?file=26376516941914445366.png][IMG]http://imagecurl.com/images/26376516941914445366_thumb.png[/IMG][/URL]
[URL=http://imagecurl.com/viewer.php?file=16011597547194362996.png][IMG]http://imagecurl.com/images/16011597547194362996_thumb.png[/IMG][/URL]
[URL=http://imagecurl.com/viewer.php?file=90979515952683095832.png][IMG]http://imagecurl.com/images/90979515952683095832_thumb.png[/IMG][/URL]
[URL=http://imagecurl.com/viewer.php?file=48644422601987557584.png][IMG]http://imagecurl.com/images/48644422601987557584_thumb.png[/IMG][/URL]
[URL=http://imagecurl.com/viewer.php?file=48430804288979645506.png][IMG]http://imagecurl.com/images/48430804288979645506_thumb.png[/IMG][/URL]
[URL=http://imagecurl.com/viewer.php?file=88014874657467586009.png][IMG]http://imagecurl.com/images/88014874657467586009_thumb.png[/IMG][/URL]



[mediainfo]
Video
ID                                       : 1
Format                                   : AVC
Format/Info                              : Advanced Video Codec
Format profile                           : [email protected]
Format settings, CABAC                   : Yes
Format settings, ReFrames                : 4 frames
Codec ID                                 : V_MPEG4/ISO/AVC
Duration                                 : 43mn 8s
Bit rate                                 : 5 064 Kbps
Width                                    : 1 916 pixels
Height                                   : 1 076 pixels
Display aspect ratio                     : 16:9
Frame rate mode                          : Constant
Frame rate                               : 23.976 (24000/1001) fps
Color space                              : YUV
Chroma subsampling                       : 4:2:0
Bit depth                                : 8 bits
Scan type                                : Progressive
Bits/(Pixel*Frame)                       : 0.102
Stream size                              : 1.53 GiB (91%)
Title                                    : Into.the.Badlands.S02E05.1080p.WEB-DL.DD5.1.H264-RARBG
Language                                 : English
Default                                  : Yes
Forced                                   : No
Color range                              : Limited
Color primaries                          : BT.709
Transfer characteristics                 : BT.709
Matrix coefficients                      : BT.709

Audio
ID                                       : 2
Format                                   : AC-3
Format/Info                              : Audio Coding 3
Mode extension                           : CM (complete main)
Format settings, Endianness              : Big
Codec ID                                 : A_AC3
Duration                                 : 43mn 8s
Bit rate mode                            : Constant
Bit rate                                 : 384 Kbps
Channel(s)                               : 6 channels
Channel positions                        : Front: L C R, Side: L R, LFE
Sampling rate                            : 48.0 KHz
Frame rate                               : 31.250 fps (1536 spf)
Compression mode                         : Lossy
Stream size                              : 118 MiB (7%)
Title                                    : Into.the.Badlands.S02E05.1080p.WEB-DL.DD5.1.H264-RARBG
Language                                 : English
Default                                  : Yes
Forced                                   : No

Text #1
ID                                       : 3
Format                                   : UTF-8
Codec ID                                 : S_TEXT/UTF8
Codec ID/Info                            : UTF-8 Plain Text
Language                                 : English
Default                                  : Yes
Forced                                   : No

Text #2
ID                                       : 4
Format                                   : UTF-8
Codec ID                                 : S_TEXT/UTF8
Codec ID/Info                            : UTF-8 Plain Text
Title                                    : SDH
Language                                 : English
Default                                  : No
Forced                                   : No



[/mediainfo]
Download
File Container: MKV
Video/Audio Codec: H264 (HIGH) AC3
Video Resolution: 1916x1076
 
 
 
 

Show us some love

2 Responses to "[RR/NF/UL/UR] Into the Badlands S02E05 1080p WEB-DL DD5 1 H264-RARBG (1.7GB)"
05/19/17
17:12:53
Admin

RapidRAR re-uploaded with new RAR file(s) (users who couldn't download some parts need to download all parts again).

05/19/17
17:30:27
Admin

RapidRAR re-uploaded with new RAR file(s) (users who couldn't download some parts need to download all parts again).

Leave a Comment

  • (never displayed)
  •  
        Members don't see captchas. Sign Up / Sign In
  • Notify me via email when someone responds.
  • Subscribe my Feeds
  • Facebook

Latest Episodes

Popular Movies and TV Shows

  • John Wick: Chapter 2
  • Better Call Saul
  • Gotham
  • Supergirl
  • The Devil's Candy
  • Logan
  • Twin Peaks
  • Lucifer
  • Casual
  • Grave
  • Free Fire
  • Jonny's Sweet Revenge
  • Outcast
  • Angie Tribeca
  • I'm Dying Up Here
  • Bacalaureat
  • Danger Close
  • The Wizard of Lies
  • Into the Badlands
  • Silicon Valley
  • 12 Monkeys
  • The LEGO Batman Movie
  • Beauty and the Beast
  • Buster's Mal Heart
  • American Gods

Recent Comments

  • MahBoff:

    Thanks! :)

  • x265Addict: @Admin Why you are not uploading EVO's 720p and 1080p WEB-DLs. You are uploading only FGT's 1080 WEB...
  • x265Addict: @Admin Why you are not uploading EVO's 720p and 1080p WEB-DLs. You are uploading only FGT's 1080 WEB...
  • M1st3rN0b0d7: Please release x265,Thanks !
  • x265Addict: This is working through Internet Explorer. Page is not loading. This is S#it. -_- Make browser with ...
  • MahBoff:

    Thank you for the 720/hevc webrip!

  • bigbadbryce: SIX S01 BDRip x264-DEMAND @admin. I have tried several times to d/load from RapidRAR "SIX"...
  • uploadedking:

    UPLOADED LINKS?

  • uploadedking:

    REUP UPLOADED PLEASE

  • uploadedking:

    UPLOADED PLEASE