Sign Up   |   Sign In  

Announcements

Want to support us?
Buy a RapidRAR account from our resellers:
Buy or renew a NitroFlare account via THIS LINK

04/17

2017

No

Comments

Into the Badlands S02E05 WEB-DL x264-RARBG
[RR/NF/UL/OL/OLw/UR]
Size: 305MB mp4 H264 (HIGH) (AVC1) / AAC (LC) (MP4A) 720x400

Into the Badlands
Click on the image to see full size
[RR/NF/UL/OL/OLw/UR] Into the Badlands S02E05 WEB-DL x264-RARBG (305MB) - Snapshot 1[RR/NF/UL/OL/OLw/UR] Into the Badlands S02E05 WEB-DL x264-RARBG (305MB) - Snapshot 2
File Information
[URL]http://www.imdb.com/title/tt3865236/[/URL]
[screenshots]
[URL=http://imagecurl.com/viewer.php?file=81614487084977244723.png][IMG]http://imagecurl.com/images/81614487084977244723_thumb.png[/IMG][/URL]
[URL=http://imagecurl.com/viewer.php?file=21440331528252762413.png][IMG]http://imagecurl.com/images/21440331528252762413_thumb.png[/IMG][/URL]
[URL=http://imagecurl.com/viewer.php?file=77876459976579625780.png][IMG]http://imagecurl.com/images/77876459976579625780_thumb.png[/IMG][/URL]
[URL=http://imagecurl.com/viewer.php?file=24068265585444919773.png][IMG]http://imagecurl.com/images/24068265585444919773_thumb.png[/IMG][/URL]

[/screenshots]


[mediainfo]
Video
ID                                       : 1
Format                                   : AVC
Format/Info                              : Advanced Video Codec
Format profile                           : [email protected]
Format settings, CABAC                   : Yes
Format settings, ReFrames                : 5 frames
Codec ID                                 : avc1
Codec ID/Info                            : Advanced Video Coding
Duration                                 : 43mn 8s
Bit rate                                 : 856 Kbps
Width                                    : 720 pixels
Height                                   : 400 pixels
Display aspect ratio                     : 16:9
Original display aspect ratio            : 16:9
Frame rate mode                          : Constant
Frame rate                               : 23.976 (24000/1001) fps
Color space                              : YUV
Chroma subsampling                       : 4:2:0
Bit depth                                : 8 bits
Scan type                                : Progressive
Bits/(Pixel*Frame)                       : 0.124
Stream size                              : 264 MiB (87%)
Title                                    : RARBG.COM - Into.the.Badlands.S02E05.WEB-DL.x264-RARBG
Writing library                          : x264 core 148 r2597M e86f3a1
 Encoding settings                        : cabac=1 / ref=5 / deblock=1:-1:-1 / analyse=0x3:0x113 / me=umh / subme=9 / psy=1 / psy_rd=1.00:0.15 / mixed_ref=1 / me_range=16 / chroma_me=1 / trellis=2 / 8x8dct=1 / cqm=0 / deadz / fast pskip=1 / chroma_qp_offset=-3 / threads=12 / lookahead_threads=1 / sliced_threads=0 / nr=0 / decimate=1 / interlaced=0 / bluray_compat=0 / c / bframes=3 / b_pyramid=2 / b_adapt=2 / b_bias=0 / direct=3 / weightb=1 / open_gop=0 / weightp=2 / keyint=250 / keyint_min=23 / scenecut=40 / intra_refresh=0 / rc_lookahead=50 / rc=crf / mbtree=1 / crf=19.0 / qcomp=0.60 / qpmin=0 / qpmax=69 / qpstep=4 / ip_ratio=1.40 / aq=1:1.00
Language                                 : English
Encoded date                             : UTC 2017-04-17 09:22:32
Tagged date                              : UTC 2017-04-17 09:22:32

Audio
ID                                       : 2
Format                                   : AAC
Format/Info                              : Advanced Audio Codec
Format profile                           : LC
Codec ID                                 : 40
Duration                                 : 43mn 8s
Bit rate mode                            : Constant
Bit rate                                 : 128 Kbps
Channel(s)                               : 2 channels
Channel positions                        : Front: L R
Sampling rate                            : 48.0 KHz
Frame rate                               : 46.875 fps (1024 spf)
Compression mode                         : Lossy
Stream size                              : 39.5 MiB (13%)
Title                                    : RARBG.COM - Into.the.Badlands.S02E05.WEB-DL.x264-RARBG
Language                                 : English
Default                                  : Yes
Alternate group                          : 1
Encoded date                             : UTC 2017-04-17 09:22:32
Tagged date                              : UTC 2017-04-17 09:22:32



[/mediainfo]
Download
File Container: MP4
Video/Audio Codec: H264 (HIGH) (AVC1) AAC (LC) (MP4A)
Video Resolution: 720x400
 
 
 
 
 
Watch Online [MP4]

Show us some love

Leave a Comment

  • (never displayed)
  •  
        Members don't see captchas. Sign Up / Sign In
  • Notify me via email when someone responds.
  • Subscribe my Feeds
  • Facebook

Latest Episodes

Popular Movies and TV Shows

  • Prison Break: Sequel
  • The Handmaid's Tale
  • The Flash
  • Atlantis Rising
  • Zhong Nan Hai bao biao
  • Tai ji: Zhang San Feng
  • Agents of S.H.I.E.L.D.
  • Bill Nye Saves the World
  • iZombie
  • Revenge of the Electric Car
  • Wong Fei Hung
  • Shao Lin si
  • The Americans
  • Brooklyn Nine-Nine
  • Harlots
  • The Void
  • The Affair
  • Fifty Shades Darker
  • The Mick
  • Great News
  • Chicago Fire
  • Little Deaths
  • Miekkailija
  • Tha se do stin Kolasi, agapi mou
  • Gotham

Recent Comments

  • JT:

    Uploadrocket link already down. Please re-up and add clicknupload.

  • Admin:

    Fixed, thanks.

  • Admin:

    Soon.

  • Mud Johnson:

    upload the next episodes, please

  • violetcherry: @Admin Sorry to ask you again, but it's been four weeks and you do respond to some other questions, ...
  • dude68: Any chance of series 14 episode 1 with an 480p rtm re encode pleasethank you for the quality re enco...
  • violetcherry: Following links are dead/file removed for Kims Convenience S01E12 720p WEB-DL HEVC Uploaded.net: U...
  • b007:

    Thank you for the amazing upload!

  • meridian: "Subtitles" in the info refers to soft subs, the kind you can turn on/off. If you look at...
  • asric:

    Could I get a refresh on the rapidrar links, please? Thank you in advance!