Sign Up   |   Sign In  
Chicago P.D.Chicago FireAbbott ElementaryA Bullet for JoeyBamse and the Thief CityNight SwimMoonedWild CardsStar Wars: The Bad BatchChicago MedSlaughterhouse Slumber PartyA Couch in New YorkConstellationThe RookieThe Good DoctorPink Floyd: The Dark Side of the Moon (50th Anniversary Box Set)RuthlessLouis C.K.: Back to the GardenWill TrentFBIQuantum LeapThe Mental StateMean GirlsTurn Me On, Dammit!Monsieur Spade

Announcements

02/07

2024

No

Comments

Ishura S01E06 Gathering of Factions 1080p DSNP WEB-DL AAC2 0 H 264-NTb
[RR/NF/CU]
Size: 1010MB mkv H264 (HIGH) / AAC (LC)  HD  1920x1080

Ishura
File Information
[img]http://lookpic.com/cdn/i2/t/0207202407162808-1.jpg[/img]
[img]http://lookpic.com/cdn/i2/t/0207202407162808-2.jpg[/img]
[img]http://lookpic.com/cdn/i2/t/0207202407162808-3.jpg[/img]

General
Unique ID                                : 14834408024565057476920061679178675141 (0xB2900C8AECD46012DDEE346DB74F3C5)
Complete name                            : Ishura.S01E06.Gathering.of.Factions.1080p.DSNP.WEB-DL.AAC2.0.H.264-NTb.mkv
Format                                   : Matroska
Format version                           : Version 4
File size                                : 1 010 MiB
Duration                                 : 23 min 42 s
Overall bit rate mode                    : Variable
Overall bit rate                         : 5 959 kb/s
Frame rate                               : 23.976 FPS
Writing application                      : mkvmerge v81.0 ('Milliontown') 64-bit
Writing library                          : libebml v1.4.4 + libmatroska v1.7.1

Video
ID                                       : 1
Format                                   : AVC
Format/Info                              : Advanced Video Codec
Format profile                           : High@L4
Format settings                          : CABAC / 4 Ref Frames
Format settings, CABAC                   : Yes
Format settings, Reference frames        : 4 frames
Codec ID                                 : V_MPEG4/ISO/AVC
Duration                                 : 23 min 42 s
Bit rate mode                            : Variable
Bit rate                                 : 5 827 kb/s
Maximum bit rate                         : 12.7 Mb/s
Width                                    : 1 920 pixels
Height                                   : 1 080 pixels
Display aspect ratio                     : 16:9
Frame rate mode                          : Constant
Frame rate                               : 23.976 (24000/1001) FPS
Color space                              : YUV
Chroma subsampling                       : 4:2:0
Bit depth                                : 8 bits
Scan type                                : Progressive
Bits/(Pixel*Frame)                       : 0.117
Time code of first frame                 : 00:00:00:0000000000
Stream size                              : 988 MiB (98%)
Default                                  : Yes
Forced                                   : No
Color range                              : Limited
Color primaries                          : BT.709
Transfer characteristics                 : BT.709
Matrix coefficients                      : BT.709

Audio
ID                                       : 2
Format                                   : AAC LC
Format/Info                              : Advanced Audio Codec Low Complexity
Codec ID                                 : A_AAC-2
Duration                                 : 23 min 42 s
Bit rate                                 : 125 kb/s
Channel(s)                               : 2 channels
Channel layout                           : L R
Sampling rate                            : 48.0 kHz
Frame rate                               : 46.875 FPS (1024 SPF)
Compression mode                         : Lossy
Stream size                              : 21.3 MiB (2%)
Language                                 : Japanese
Default                                  : Yes
Forced                                   : No

Text #1
ID                                       : 3
Format                                   : UTF-8
Codec ID                                 : S_TEXT/UTF8
Codec ID/Info                            : UTF-8 Plain Text
Duration                                 : 23 min 31 s
Bit rate                                 : 71 b/s
Frame rate                               : 0.266 FPS
Count of elements                        : 375
Stream size                              : 12.3 KiB (0%)
Language                                 : English
Default                                  : No
Forced                                   : No

Text #2
ID                                       : 4
Format                                   : UTF-8
Codec ID                                 : S_TEXT/UTF8
Codec ID/Info                            : UTF-8 Plain Text
Duration                                 : 23 min 38 s
Bit rate                                 : 80 b/s
Frame rate                               : 0.293 FPS
Count of elements                        : 416
Stream size                              : 14.0 KiB (0%)
Title                                    : SDH
Language                                 : English
Default                                  : No
Forced                                   : No

Text #3
ID                                       : 5
Format                                   : UTF-8
Codec ID                                 : S_TEXT/UTF8
Codec ID/Info                            : UTF-8 Plain Text
Duration                                 : 23 min 33 s
Bit rate                                 : 67 b/s
Frame rate                               : 0.258 FPS
Count of elements                        : 365
Stream size                              : 11.6 KiB (0%)
Language                                 : Czech
Default                                  : No
Forced                                   : No

Text #4
ID                                       : 6
Format                                   : UTF-8
Codec ID                                 : S_TEXT/UTF8
Codec ID/Info                            : UTF-8 Plain Text
Duration                                 : 23 min 32 s
Bit rate                                 : 69 b/s
Frame rate                               : 0.258 FPS
Count of elements                        : 365
Stream size                              : 11.9 KiB (0%)
Language                                 : Danish
Default                                  : No
Forced                                   : No

Text #5
ID                                       : 7
Format                                   : UTF-8
Codec ID                                 : S_TEXT/UTF8
Codec ID/Info                            : UTF-8 Plain Text
Duration                                 : 23 min 33 s
Bit rate                                 : 72 b/s
Frame rate                               : 0.258 FPS
Count of elements                        : 365
Stream size                              : 12.5 KiB (0%)
Language                                 : German
Default                                  : No
Forced                                   : No

Text #6
ID                                       : 8
Format                                   : UTF-8
Codec ID                                 : S_TEXT/UTF8
Codec ID/Info                            : UTF-8 Plain Text
Duration                                 : 23 min 33 s
Bit rate                                 : 119 b/s
Frame rate                               : 0.258 FPS
Count of elements                        : 365
Stream size                              : 20.6 KiB (0%)
Language                                 : Greek
Default                                  : No
Forced                                   : No

Text #7
ID                                       : 9
Format                                   : UTF-8
Codec ID                                 : S_TEXT/UTF8
Codec ID/Info                            : UTF-8 Plain Text
Duration                                 : 23 min 33 s
Bit rate                                 : 69 b/s
Frame rate                               : 0.258 FPS
Count of elements                        : 364
Stream size                              : 12.0 KiB (0%)
Title                                    : Spanish (Latin America)
Language                                 : Spanish (Latin America)
Default                                  : No
Forced                                   : No

Text #8
ID                                       : 10
Format                                   : UTF-8
Codec ID                                 : S_TEXT/UTF8
Codec ID/Info                            : UTF-8 Plain Text
Duration                                 : 23 min 33 s
Bit rate                                 : 62 b/s
Frame rate                               : 0.258 FPS
Count of elements                        : 364
Stream size                              : 10.7 KiB (0%)
Title                                    : Spanish (Spain)
Language                                 : Spanish (ES)
Default                                  : No
Forced                                   : No

Text #9
ID                                       : 11
Format                                   : UTF-8
Codec ID                                 : S_TEXT/UTF8
Codec ID/Info                            : UTF-8 Plain Text
Duration                                 : 23 min 33 s
Bit rate                                 : 66 b/s
Frame rate                               : 0.258 FPS
Count of elements                        : 365
Stream size                              : 11.5 KiB (0%)
Language                                 : Finnish
Default                                  : No
Forced                                   : No

Text #10
ID                                       : 12
Format                                   : UTF-8
Codec ID                                 : S_TEXT/UTF8
Codec ID/Info                            : UTF-8 Plain Text
Duration                                 : 23 min 33 s
Bit rate                                 : 74 b/s
Frame rate                               : 0.258 FPS
Count of elements                        : 365
Stream size                              : 12.9 KiB (0%)
Language                                 : French (FR)
Default                                  : No
Forced                                   : No

Text #11
ID                                       : 13
Format                                   : UTF-8
Codec ID                                 : S_TEXT/UTF8
Codec ID/Info                            : UTF-8 Plain Text
Duration                                 : 23 min 33 s
Bit rate                                 : 71 b/s
Frame rate                               : 0.258 FPS
Count of elements                        : 365
Stream size                              : 12.3 KiB (0%)
Language                                 : Hungarian
Default                                  : No
Forced                                   : No

Text #12
ID                                       : 14
Format                                   : UTF-8
Codec ID                                 : S_TEXT/UTF8
Codec ID/Info                            : UTF-8 Plain Text
Duration                                 : 23 min 33 s
Bit rate                                 : 68 b/s
Frame rate                               : 0.258 FPS
Count of elements                        : 365
Stream size                              : 11.8 KiB (0%)
Language                                 : Italian
Default                                  : No
Forced                                   : No

Text #13
ID                                       : 15
Format                                   : UTF-8
Codec ID                                 : S_TEXT/UTF8
Codec ID/Info                            : UTF-8 Plain Text
Duration                                 : 23 min 24 s
Bit rate                                 : 80 b/s
Frame rate                               : 0.262 FPS
Count of elements                        : 368
Stream size                              : 13.9 KiB (0%)
Language                                 : Japanese
Default                                  : No
Forced                                   : No

Text #14
ID                                       : 16
Format                                   : UTF-8
Codec ID                                 : S_TEXT/UTF8
Codec ID/Info                            : UTF-8 Plain Text
Duration                                 : 23 min 24 s
Bit rate                                 : 87 b/s
Frame rate                               : 0.266 FPS
Count of elements                        : 374
Stream size                              : 15.1 KiB (0%)
Title                                    : SDH
Language                                 : Japanese
Default                                  : No
Forced                                   : No

Text #15
ID                                       : 17
Format                                   : UTF-8
Codec ID                                 : S_TEXT/UTF8
Codec ID/Info                            : UTF-8 Plain Text
Duration                                 : 23 min 33 s
Bit rate                                 : 69 b/s
Frame rate                               : 0.241 FPS
Count of elements                        : 340
Stream size                              : 11.9 KiB (0%)
Language                                 : Korean
Default                                  : No
Forced                                   : No

Text #16
ID                                       : 18
Format                                   : UTF-8
Codec ID                                 : S_TEXT/UTF8
Codec ID/Info                            : UTF-8 Plain Text
Duration                                 : 23 min 40 s
Bit rate                                 : 85 b/s
Frame rate                               : 0.278 FPS
Count of elements                        : 395
Stream size                              : 14.7 KiB (0%)
Title                                    : SDH
Language                                 : Korean
Default                                  : No
Forced                                   : No

Text #17
ID                                       : 19
Format                                   : UTF-8
Codec ID                                 : S_TEXT/UTF8
Codec ID/Info                            : UTF-8 Plain Text
Duration                                 : 23 min 33 s
Bit rate                                 : 70 b/s
Frame rate                               : 0.258 FPS
Count of elements                        : 365
Stream size                              : 12.1 KiB (0%)
Language                                 : Dutch
Default                                  : No
Forced                                   : No

Text #18
ID                                       : 20
Format                                   : UTF-8
Codec ID                                 : S_TEXT/UTF8
Codec ID/Info                            : UTF-8 Plain Text
Duration                                 : 23 min 33 s
Bit rate                                 : 65 b/s
Frame rate                               : 0.258 FPS
Count of elements                        : 365
Stream size                              : 11.2 KiB (0%)
Language                                 : Norwegian
Default                                  : No
Forced                                   : No

Text #19
ID                                       : 21
Format                                   : UTF-8
Codec ID                                 : S_TEXT/UTF8
Codec ID/Info                            : UTF-8 Plain Text
Duration                                 : 23 min 33 s
Bit rate                                 : 65 b/s
Frame rate                               : 0.258 FPS
Count of elements                        : 365
Stream size                              : 11.2 KiB (0%)
Language                                 : Polish
Default                                  : No
Forced                                   : No

Text #20
ID                                       : 22
Format                                   : UTF-8
Codec ID                                 : S_TEXT/UTF8
Codec ID/Info                            : UTF-8 Plain Text
Duration                                 : 23 min 32 s
Bit rate                                 : 70 b/s
Frame rate                               : 0.258 FPS
Count of elements                        : 364
Stream size                              : 12.2 KiB (0%)
Title                                    : Portuguese (Brazil)
Language                                 : Portuguese (BR)
Default                                  : No
Forced                                   : No

Text #21
ID                                       : 23
Format                                   : UTF-8
Codec ID                                 : S_TEXT/UTF8
Codec ID/Info                            : UTF-8 Plain Text
Duration                                 : 23 min 33 s
Bit rate                                 : 69 b/s
Frame rate                               : 0.258 FPS
Count of elements                        : 365
Stream size                              : 12.0 KiB (0%)
Title                                    : Portuguese (Portugal)
Language                                 : Portuguese (PT)
Default                                  : No
Forced                                   : No

Text #22
ID                                       : 24
Format                                   : UTF-8
Codec ID                                 : S_TEXT/UTF8
Codec ID/Info                            : UTF-8 Plain Text
Duration                                 : 23 min 33 s
Bit rate                                 : 72 b/s
Frame rate                               : 0.258 FPS
Count of elements                        : 365
Stream size                              : 12.5 KiB (0%)
Language                                 : Romanian
Default                                  : No
Forced                                   : No

Text #23
ID                                       : 25
Format                                   : UTF-8
Codec ID                                 : S_TEXT/UTF8
Codec ID/Info                            : UTF-8 Plain Text
Duration                                 : 23 min 33 s
Bit rate                                 : 73 b/s
Frame rate                               : 0.258 FPS
Count of elements                        : 365
Stream size                              : 12.7 KiB (0%)
Language                                 : Slovak
Default                                  : No
Forced                                   : No

Text #24
ID                                       : 26
Format                                   : UTF-8
Codec ID                                 : S_TEXT/UTF8
Codec ID/Info                            : UTF-8 Plain Text
Duration                                 : 23 min 33 s
Bit rate                                 : 66 b/s
Frame rate                               : 0.258 FPS
Count of elements                        : 365
Stream size                              : 11.4 KiB (0%)
Language                                 : Swedish
Default                                  : No
Forced                                   : No

Text #25
ID                                       : 27
Format                                   : UTF-8
Codec ID                                 : S_TEXT/UTF8
Codec ID/Info                            : UTF-8 Plain Text
Duration                                 : 23 min 33 s
Bit rate                                 : 70 b/s
Frame rate                               : 0.258 FPS
Count of elements                        : 365
Stream size                              : 12.1 KiB (0%)
Language                                 : Turkish
Default                                  : No
Forced                                   : No

Text #26
ID                                       : 28
Format                                   : UTF-8
Codec ID                                 : S_TEXT/UTF8
Codec ID/Info                            : UTF-8 Plain Text
Duration                                 : 23 min 33 s
Bit rate                                 : 59 b/s
Frame rate                               : 0.258 FPS
Count of elements                        : 364
Stream size                              : 10.2 KiB (0%)
Language                                 : Chinese (Traditional)
Default                                  : No
Forced                                   : No



Download
File Container: MKV
Video/Audio Codec: H264 (HIGH) AAC (LC)
Video Resolution: 1920x1080
Please Login to post a comment.
If you don't have any account, please Register.
  • Subscribe my Feeds
  • Facebook

Latest Episodes

Popular Movies and TV Shows

  • Chicago P.D.
  • Chicago Fire
  • Abbott Elementary
  • A Bullet for Joey
  • Bamse and the Thief City
  • Night Swim
  • Mooned
  • Wild Cards
  • Star Wars: The Bad Batch
  • Chicago Med
  • Slaughterhouse Slumber Party
  • A Couch in New York
  • Constellation
  • The Rookie
  • The Good Doctor
  • Pink Floyd: The Dark Side of the Moon (50th Anniversary Box Set)
  • Ruthless
  • Louis C.K.: Back to the Garden
  • Will Trent
  • FBI
  • Quantum Leap
  • The Mental State
  • Mean Girls
  • Turn Me On, Dammit!
  • Monsieur Spade

Recent Comments

  • tbbttbbt:

    All links are dead, NF is dead too

  • mentalityx:

    THanks for this.

  • KubrickFan:

    Any possibility of a fresh link for this? x264 preferably

  • bitz:

    reload please

  • stefan43: plaese reup on clicknupload.club
  • mentalityx:

    Thx for this one.

  • wxe09104:

    please add Monsieur Spade episode 6

  • ninjamouse28: can someone update this with the actual web-dl? it says it is but still has the logo, & some of ...
  • kellym2:

    Could you please put TV series "STRIFE" eps 1-8 on in 264 format. Much appreciated

  • bitz:

    travelers... wrong series?

Archives