Sign Up   |   Sign In  
ShogunMonkey ManNCISArthur the KingNCIS: Hawai'iDowntown OwlThe NeighborhoodBob Hearts AbisholaAll AmericanOne LifeTime AddictsWhich Brings Me to YouTrackerFalloutThe SimpsonsKung Fu Panda 4Rebel Moon - Part Two: The ScargiverFern Brady: Autistic Bikini QueenThe SympathizerCSI: VegasThe EqualizerTigers on the RiseTigerDune: Part TwoBeacon 23

Announcements

02/22

2024

No

Comments

Ishura S01E08 The New Demon King War 1080p DSNP WEB-DL AAC2 0 H 264-NTb
[RR/NF/CU]
Size: 1GB mkv H264 (HIGH) / AAC (LC)  HD  1920x1080

Ishura
File Information
[img]http://lookpic.com/cdn/i2/t/0222202401045483-1.jpg[/img]
[img]http://lookpic.com/cdn/i2/t/0222202401045483-2.jpg[/img]
[img]http://lookpic.com/cdn/i2/t/0222202401045483-3.jpg[/img]

General
Unique ID                                : 67733690293856334355103728124054762127 (0x32F508C3D3A525D2A7E425F1D7EC728F)
Complete name                            : Ishura.S01E08.The.New.Demon.King.War.1080p.DSNP.WEB-DL.AAC2.0.H.264-NTb.mkv
Format                                   : Matroska
Format version                           : Version 4
File size                                : 1.04 GiB
Duration                                 : 23 min 42 s
Overall bit rate mode                    : Variable
Overall bit rate                         : 6 292 kb/s
Frame rate                               : 23.976 FPS
Writing application                      : mkvmerge v81.0 ('Milliontown') 64-bit
Writing library                          : libebml v1.4.4 + libmatroska v1.7.1

Video
ID                                       : 1
Format                                   : AVC
Format/Info                              : Advanced Video Codec
Format profile                           : High@L4
Format settings                          : CABAC / 4 Ref Frames
Format settings, CABAC                   : Yes
Format settings, Reference frames        : 4 frames
Codec ID                                 : V_MPEG4/ISO/AVC
Duration                                 : 23 min 42 s
Bit rate mode                            : Variable
Bit rate                                 : 6 161 kb/s
Maximum bit rate                         : 12.7 Mb/s
Width                                    : 1 920 pixels
Height                                   : 1 080 pixels
Display aspect ratio                     : 16:9
Frame rate mode                          : Constant
Frame rate                               : 23.976 (24000/1001) FPS
Color space                              : YUV
Chroma subsampling                       : 4:2:0
Bit depth                                : 8 bits
Scan type                                : Progressive
Bits/(Pixel*Frame)                       : 0.124
Time code of first frame                 : 00:00:00:0000000000
Stream size                              : 1.02 GiB (98%)
Default                                  : Yes
Forced                                   : No
Color range                              : Limited
Color primaries                          : BT.709
Transfer characteristics                 : BT.709
Matrix coefficients                      : BT.709

Audio
ID                                       : 2
Format                                   : AAC LC
Format/Info                              : Advanced Audio Codec Low Complexity
Codec ID                                 : A_AAC-2
Duration                                 : 23 min 42 s
Bit rate                                 : 125 kb/s
Channel(s)                               : 2 channels
Channel layout                           : L R
Sampling rate                            : 48.0 kHz
Frame rate                               : 46.875 FPS (1024 SPF)
Compression mode                         : Lossy
Stream size                              : 21.3 MiB (2%)
Language                                 : Japanese
Default                                  : Yes
Forced                                   : No

Text #1
ID                                       : 3
Format                                   : UTF-8
Codec ID                                 : S_TEXT/UTF8
Codec ID/Info                            : UTF-8 Plain Text
Duration                                 : 23 min 36 s
Bit rate                                 : 61 b/s
Frame rate                               : 0.251 FPS
Count of elements                        : 355
Stream size                              : 10.7 KiB (0%)
Language                                 : English
Default                                  : No
Forced                                   : No

Text #2
ID                                       : 4
Format                                   : UTF-8
Codec ID                                 : S_TEXT/UTF8
Codec ID/Info                            : UTF-8 Plain Text
Duration                                 : 23 min 39 s
Bit rate                                 : 79 b/s
Frame rate                               : 0.313 FPS
Count of elements                        : 444
Stream size                              : 13.8 KiB (0%)
Title                                    : SDH
Language                                 : English
Default                                  : No
Forced                                   : No

Text #3
ID                                       : 5
Format                                   : UTF-8
Codec ID                                 : S_TEXT/UTF8
Codec ID/Info                            : UTF-8 Plain Text
Duration                                 : 23 min 37 s
Bit rate                                 : 58 b/s
Frame rate                               : 0.239 FPS
Count of elements                        : 339
Stream size                              : 10.1 KiB (0%)
Language                                 : Czech
Default                                  : No
Forced                                   : No

Text #4
ID                                       : 6
Format                                   : UTF-8
Codec ID                                 : S_TEXT/UTF8
Codec ID/Info                            : UTF-8 Plain Text
Duration                                 : 23 min 37 s
Bit rate                                 : 60 b/s
Frame rate                               : 0.239 FPS
Count of elements                        : 339
Stream size                              : 10.5 KiB (0%)
Language                                 : Danish
Default                                  : No
Forced                                   : No

Text #5
ID                                       : 7
Format                                   : UTF-8
Codec ID                                 : S_TEXT/UTF8
Codec ID/Info                            : UTF-8 Plain Text
Duration                                 : 23 min 37 s
Bit rate                                 : 63 b/s
Frame rate                               : 0.236 FPS
Count of elements                        : 335
Stream size                              : 11.0 KiB (0%)
Language                                 : German
Default                                  : No
Forced                                   : No

Text #6
ID                                       : 8
Format                                   : UTF-8
Codec ID                                 : S_TEXT/UTF8
Codec ID/Info                            : UTF-8 Plain Text
Duration                                 : 23 min 37 s
Bit rate                                 : 104 b/s
Frame rate                               : 0.239 FPS
Count of elements                        : 339
Stream size                              : 18.0 KiB (0%)
Language                                 : Greek
Default                                  : No
Forced                                   : No

Text #7
ID                                       : 9
Format                                   : UTF-8
Codec ID                                 : S_TEXT/UTF8
Codec ID/Info                            : UTF-8 Plain Text
Duration                                 : 23 min 37 s
Bit rate                                 : 61 b/s
Frame rate                               : 0.239 FPS
Count of elements                        : 339
Stream size                              : 10.6 KiB (0%)
Title                                    : Spanish (Latin America)
Language                                 : Spanish (Latin America)
Default                                  : No
Forced                                   : No

Text #8
ID                                       : 10
Format                                   : UTF-8
Codec ID                                 : S_TEXT/UTF8
Codec ID/Info                            : UTF-8 Plain Text
Duration                                 : 23 min 37 s
Bit rate                                 : 56 b/s
Frame rate                               : 0.239 FPS
Count of elements                        : 339
Stream size                              : 9.76 KiB (0%)
Title                                    : Spanish (Spain)
Language                                 : Spanish (ES)
Default                                  : No
Forced                                   : No

Text #9
ID                                       : 11
Format                                   : UTF-8
Codec ID                                 : S_TEXT/UTF8
Codec ID/Info                            : UTF-8 Plain Text
Duration                                 : 23 min 37 s
Bit rate                                 : 57 b/s
Frame rate                               : 0.239 FPS
Count of elements                        : 339
Stream size                              : 9.94 KiB (0%)
Language                                 : Finnish
Default                                  : No
Forced                                   : No

Text #10
ID                                       : 12
Format                                   : UTF-8
Codec ID                                 : S_TEXT/UTF8
Codec ID/Info                            : UTF-8 Plain Text
Duration                                 : 23 min 37 s
Bit rate                                 : 62 b/s
Frame rate                               : 0.239 FPS
Count of elements                        : 339
Stream size                              : 10.9 KiB (0%)
Language                                 : French (FR)
Default                                  : No
Forced                                   : No

Text #11
ID                                       : 13
Format                                   : UTF-8
Codec ID                                 : S_TEXT/UTF8
Codec ID/Info                            : UTF-8 Plain Text
Duration                                 : 23 min 37 s
Bit rate                                 : 62 b/s
Frame rate                               : 0.239 FPS
Count of elements                        : 339
Stream size                              : 10.8 KiB (0%)
Language                                 : Hungarian
Default                                  : No
Forced                                   : No

Text #12
ID                                       : 14
Format                                   : UTF-8
Codec ID                                 : S_TEXT/UTF8
Codec ID/Info                            : UTF-8 Plain Text
Duration                                 : 23 min 37 s
Bit rate                                 : 61 b/s
Frame rate                               : 0.239 FPS
Count of elements                        : 339
Stream size                              : 10.6 KiB (0%)
Language                                 : Italian
Default                                  : No
Forced                                   : No

Text #13
ID                                       : 15
Format                                   : UTF-8
Codec ID                                 : S_TEXT/UTF8
Codec ID/Info                            : UTF-8 Plain Text
Duration                                 : 23 min 28 s
Bit rate                                 : 68 b/s
Frame rate                               : 0.256 FPS
Count of elements                        : 361
Stream size                              : 11.8 KiB (0%)
Language                                 : Japanese
Default                                  : No
Forced                                   : No

Text #14
ID                                       : 16
Format                                   : UTF-8
Codec ID                                 : S_TEXT/UTF8
Codec ID/Info                            : UTF-8 Plain Text
Duration                                 : 23 min 28 s
Bit rate                                 : 80 b/s
Frame rate                               : 0.275 FPS
Count of elements                        : 387
Stream size                              : 13.9 KiB (0%)
Title                                    : SDH
Language                                 : Japanese
Default                                  : No
Forced                                   : No

Text #15
ID                                       : 17
Format                                   : UTF-8
Codec ID                                 : S_TEXT/UTF8
Codec ID/Info                            : UTF-8 Plain Text
Duration                                 : 23 min 37 s
Bit rate                                 : 62 b/s
Frame rate                               : 0.236 FPS
Count of elements                        : 335
Stream size                              : 10.8 KiB (0%)
Language                                 : Korean
Default                                  : No
Forced                                   : No

Text #16
ID                                       : 18
Format                                   : UTF-8
Codec ID                                 : S_TEXT/UTF8
Codec ID/Info                            : UTF-8 Plain Text
Duration                                 : 23 min 40 s
Bit rate                                 : 87 b/s
Frame rate                               : 0.296 FPS
Count of elements                        : 420
Stream size                              : 15.2 KiB (0%)
Title                                    : SDH
Language                                 : Korean
Default                                  : No
Forced                                   : No

Text #17
ID                                       : 19
Format                                   : UTF-8
Codec ID                                 : S_TEXT/UTF8
Codec ID/Info                            : UTF-8 Plain Text
Duration                                 : 23 min 37 s
Bit rate                                 : 61 b/s
Frame rate                               : 0.239 FPS
Count of elements                        : 339
Stream size                              : 10.7 KiB (0%)
Language                                 : Dutch
Default                                  : No
Forced                                   : No

Text #18
ID                                       : 20
Format                                   : UTF-8
Codec ID                                 : S_TEXT/UTF8
Codec ID/Info                            : UTF-8 Plain Text
Duration                                 : 23 min 37 s
Bit rate                                 : 57 b/s
Frame rate                               : 0.239 FPS
Count of elements                        : 339
Stream size                              : 9.90 KiB (0%)
Language                                 : Norwegian
Default                                  : No
Forced                                   : No

Text #19
ID                                       : 21
Format                                   : UTF-8
Codec ID                                 : S_TEXT/UTF8
Codec ID/Info                            : UTF-8 Plain Text
Duration                                 : 23 min 37 s
Bit rate                                 : 55 b/s
Frame rate                               : 0.238 FPS
Count of elements                        : 338
Stream size                              : 9.69 KiB (0%)
Language                                 : Polish
Default                                  : No
Forced                                   : No

Text #20
ID                                       : 22
Format                                   : UTF-8
Codec ID                                 : S_TEXT/UTF8
Codec ID/Info                            : UTF-8 Plain Text
Duration                                 : 23 min 36 s
Bit rate                                 : 60 b/s
Frame rate                               : 0.239 FPS
Count of elements                        : 338
Stream size                              : 10.5 KiB (0%)
Title                                    : Portuguese (Brazil)
Language                                 : Portuguese (BR)
Default                                  : No
Forced                                   : No

Text #21
ID                                       : 23
Format                                   : UTF-8
Codec ID                                 : S_TEXT/UTF8
Codec ID/Info                            : UTF-8 Plain Text
Duration                                 : 23 min 37 s
Bit rate                                 : 61 b/s
Frame rate                               : 0.239 FPS
Count of elements                        : 339
Stream size                              : 10.6 KiB (0%)
Title                                    : Portuguese (Portugal)
Language                                 : Portuguese (PT)
Default                                  : No
Forced                                   : No

Text #22
ID                                       : 24
Format                                   : UTF-8
Codec ID                                 : S_TEXT/UTF8
Codec ID/Info                            : UTF-8 Plain Text
Duration                                 : 23 min 37 s
Bit rate                                 : 62 b/s
Frame rate                               : 0.239 FPS
Count of elements                        : 339
Stream size                              : 10.8 KiB (0%)
Language                                 : Romanian
Default                                  : No
Forced                                   : No

Text #23
ID                                       : 25
Format                                   : UTF-8
Codec ID                                 : S_TEXT/UTF8
Codec ID/Info                            : UTF-8 Plain Text
Duration                                 : 23 min 37 s
Bit rate                                 : 62 b/s
Frame rate                               : 0.239 FPS
Count of elements                        : 339
Stream size                              : 10.9 KiB (0%)
Language                                 : Slovak
Default                                  : No
Forced                                   : No

Text #24
ID                                       : 26
Format                                   : UTF-8
Codec ID                                 : S_TEXT/UTF8
Codec ID/Info                            : UTF-8 Plain Text
Duration                                 : 23 min 37 s
Bit rate                                 : 59 b/s
Frame rate                               : 0.239 FPS
Count of elements                        : 339
Stream size                              : 10.3 KiB (0%)
Language                                 : Swedish
Default                                  : No
Forced                                   : No

Text #25
ID                                       : 27
Format                                   : UTF-8
Codec ID                                 : S_TEXT/UTF8
Codec ID/Info                            : UTF-8 Plain Text
Duration                                 : 23 min 37 s
Bit rate                                 : 59 b/s
Frame rate                               : 0.239 FPS
Count of elements                        : 339
Stream size                              : 10.3 KiB (0%)
Language                                 : Turkish
Default                                  : No
Forced                                   : No

Text #26
ID                                       : 28
Format                                   : UTF-8
Codec ID                                 : S_TEXT/UTF8
Codec ID/Info                            : UTF-8 Plain Text
Duration                                 : 23 min 37 s
Bit rate                                 : 54 b/s
Frame rate                               : 0.238 FPS
Count of elements                        : 338
Stream size                              : 9.39 KiB (0%)
Language                                 : Chinese (Traditional)
Default                                  : No
Forced                                   : No



Download
File Container: MKV
Video/Audio Codec: H264 (HIGH) AAC (LC)
Video Resolution: 1920x1080
Please Login to post a comment.
If you don't have any account, please Register.
  • Subscribe my Feeds
  • Facebook
Encoding Queue:  x264  x265

Latest Episodes

Popular Movies and TV Shows

  • Shogun
  • Monkey Man
  • NCIS
  • Arthur the King
  • NCIS: Hawai'i
  • Downtown Owl
  • The Neighborhood
  • Bob Hearts Abishola
  • All American
  • One Life
  • Time Addicts
  • Which Brings Me to You
  • Tracker
  • Fallout
  • The Simpsons
  • Kung Fu Panda 4
  • Rebel Moon - Part Two: The Scargiver
  • Fern Brady: Autistic Bikini Queen
  • The Sympathizer
  • CSI: Vegas
  • The Equalizer
  • Tigers on the Rise
  • Tiger
  • Dune: Part Two
  • Beacon 23

Recent Comments

  • 89M:

    NitroFlare's link is missing !!!
    Clicknupload's link is missing !!!

  • V4ND4L: May we get a ClicknUpload link for this, please. It's conspicuously missing for the team/size.
  • Bud:

    The file's half the size it should be & corrupted. Useless. Avoid.

  • mentalityx:

    Rad dude

  • mentalityx:

    Rad mate

  • waanaabe:

    I tried this file with 3 different players which all said they couldn't read the codec

  • Rosa: hi i have a question,this file size is 198mb,but on clickenupload is only 118mb is it right? what ha...
  • mike1204:

    Any reason why this episode is omitted from 'click'n'upload??

  • kellym2: I appreciate all the hard work the team does BUT there is no point in my paying for a Premium subscr...
  • Cinque_Persson: Why not skip the old news and hearsay and be constructive: what's the best alternatives for Win, Mac...
  • fallensammer:

    the file on click upload is 119mg onnly and is corrupted

  • ronkanon:

    Could you please provide a ClicknUpload link?

  • ronkanon:

    Could you please provide a ClicknUpload link?

  • waanaabe: Could you Kindly Upload the SOUTH PARK seasons to CU as well? Would be really appreciated
  • gusmac67:

    Clickupload link is corrupt. File bad at 38 min

  • timt:

    Narrated Movie!

  • Richardexamp: I recently stumbled upon https://asiancasinos.org/ and I obligated to symbolize, it has with dispatc...

Archives