Sign Up   |   Sign In  

Announcements

Want to support us?
Buy a RapidRAR account from our resellers:
Buy or renew a NitroFlare account via THIS LINK
We'll stop uploading files to Uploaded.net in December 2017.
Until further notice, We will continue uploading files to uploaded.net.

04/19

2017

No

Comments

iZombie S03E03 1080p WEB-DL DD5 1 H264-RARBG
[RR/NF/UL/UR]
Size: 1.7GB mkv H264 (HIGH) / AC3  HD  1912x1072

iZombie
Click on the image to see full size
[RR/NF/UL/UR] iZombie S03E03 1080p WEB-DL DD5 1 H264-RARBG (1.7GB) - Snapshot 1
File Information
[URL=http://imagecurl.com/viewer.php?file=77626786621243204424.png][IMG]http://imagecurl.com/images/77626786621243204424_thumb.png[/IMG][/URL]
[URL=http://imagecurl.com/viewer.php?file=91724245298825100073.png][IMG]http://imagecurl.com/images/91724245298825100073_thumb.png[/IMG][/URL]
[URL=http://imagecurl.com/viewer.php?file=99523365930543374538.png][IMG]http://imagecurl.com/images/99523365930543374538_thumb.png[/IMG][/URL]
[URL=http://imagecurl.com/viewer.php?file=45604593393575175647.png][IMG]http://imagecurl.com/images/45604593393575175647_thumb.png[/IMG][/URL]
[URL=http://imagecurl.com/viewer.php?file=05964063031196110193.png][IMG]http://imagecurl.com/images/05964063031196110193_thumb.png[/IMG][/URL]
[URL=http://imagecurl.com/viewer.php?file=00340049858121463510.png][IMG]http://imagecurl.com/images/00340049858121463510_thumb.png[/IMG][/URL]



[mediainfo]
Video
ID                                       : 1
Format                                   : AVC
Format/Info                              : Advanced Video Codec
Format profile                           : [email protected]
Format settings, CABAC                   : Yes
Format settings, ReFrames                : 4 frames
Codec ID                                 : V_MPEG4/ISO/AVC
Duration                                 : 42mn 22s
Bit rate                                 : 5 144 Kbps
Width                                    : 1 912 pixels
Height                                   : 1 072 pixels
Display aspect ratio                     : 16:9
Frame rate mode                          : Constant
Frame rate                               : 23.976 (24000/1001) fps
Color space                              : YUV
Chroma subsampling                       : 4:2:0
Bit depth                                : 8 bits
Scan type                                : Progressive
Bits/(Pixel*Frame)                       : 0.105
Stream size                              : 1.52 GiB (91%)
Title                                    : iZombie.S03E03.1080p.WEB-DL.DD5.1.H264-RARBG
Language                                 : English
Default                                  : Yes
Forced                                   : No
Color range                              : Limited
Color primaries                          : BT.709
Transfer characteristics                 : BT.709
Matrix coefficients                      : BT.709

Audio
ID                                       : 2
Format                                   : AC-3
Format/Info                              : Audio Coding 3
Mode extension                           : CM (complete main)
Format settings, Endianness              : Big
Codec ID                                 : A_AC3
Duration                                 : 42mn 22s
Bit rate mode                            : Constant
Bit rate                                 : 384 Kbps
Channel(s)                               : 6 channels
Channel positions                        : Front: L C R, Side: L R, LFE
Sampling rate                            : 48.0 KHz
Frame rate                               : 31.250 fps (1536 spf)
Compression mode                         : Lossy
Stream size                              : 116 MiB (7%)
Title                                    : iZombie.S03E03.1080p.WEB-DL.DD5.1.H264-RARBG
Language                                 : English
Default                                  : Yes
Forced                                   : No

Text #1
ID                                       : 3
Format                                   : UTF-8
Codec ID                                 : S_TEXT/UTF8
Codec ID/Info                            : UTF-8 Plain Text
Language                                 : English
Default                                  : Yes
Forced                                   : No

Text #2
ID                                       : 4
Format                                   : UTF-8
Codec ID                                 : S_TEXT/UTF8
Codec ID/Info                            : UTF-8 Plain Text
Title                                    : SDH
Language                                 : English
Default                                  : No
Forced                                   : No



[/mediainfo]
Download
File Container: MKV
Video/Audio Codec: H264 (HIGH) AC3
Video Resolution: 1912x1072

Leave a Comment

  • (never displayed)
  •  
        Members don't see captchas. Sign Up / Sign In
  • Notify me via email when someone responds.
  • Subscribe my Feeds
  • Facebook

Latest Episodes

Popular Movies and TV Shows

  • A Very English Scandal
  • Fahrenheit 451
  • Patrick Melrose
  • Miami
  • The World Made Straight
  • 13 Reasons Why
  • Le vent d'est
  • Avengers: Infinity War
  • Saturday Night Live
  • Sweetbitter
  • Rabbids Invasion
  • The Royal Wedding: Prince Harry and Meghan Markle
  • The Good Fight
  • Vida
  • Havenhurst
  • Girl Lost
  • Fear the Walking Dead
  • Swinging Safari
  • Caravan to Vaccares
  • Agents of S.H.I.E.L.D.
  • Blindspot
  • Bomb Girls: Facing the Enemy
  • Vice
  • The Big Bang Theory

Recent Comments

Archives