Sign Up   |   Sign In  

Announcements

Want to support us?
Buy a RapidRAR account from our resellers:
Buy or renew a NitroFlare account via THIS LINK
We'll stop uploading files to Uploaded.net in December 2017.

04/19

2017

No

Comments

iZombie S03E03 720p WEB-DL DD5 1 H264-RARBG
[RR/NF/UL/UR]
Size: 1.3GB mkv H264 (HIGH) / AC3  HD  1280x718

iZombie
Click on the image to see full size
[RR/NF/UL/UR] iZombie S03E03 720p WEB-DL DD5 1 H264-RARBG (1.3GB) - Snapshot 1
File Information
[URL=http://imagecurl.com/viewer.php?file=54481391062019451579.png][IMG]http://imagecurl.com/images/54481391062019451579_thumb.png[/IMG][/URL]
[URL=http://imagecurl.com/viewer.php?file=75181448212795945743.png][IMG]http://imagecurl.com/images/75181448212795945743_thumb.png[/IMG][/URL]
[URL=http://imagecurl.com/viewer.php?file=97908480878736311899.png][IMG]http://imagecurl.com/images/97908480878736311899_thumb.png[/IMG][/URL]
[URL=http://imagecurl.com/viewer.php?file=71874321606215944480.png][IMG]http://imagecurl.com/images/71874321606215944480_thumb.png[/IMG][/URL]
[URL=http://imagecurl.com/viewer.php?file=14526428268943249767.png][IMG]http://imagecurl.com/images/14526428268943249767_thumb.png[/IMG][/URL]
[URL=http://imagecurl.com/viewer.php?file=47450527208062555566.png][IMG]http://imagecurl.com/images/47450527208062555566_thumb.png[/IMG][/URL]



[mediainfo]
Video
ID                                       : 1
Format                                   : AVC
Format/Info                              : Advanced Video Codec
Format profile                           : [email protected]
Format settings, CABAC                   : No
Format settings, ReFrames                : 2 frames
Codec ID                                 : V_MPEG4/ISO/AVC
Duration                                 : 42mn 22s
Bit rate                                 : 4 041 Kbps
Width                                    : 1 280 pixels
Height                                   : 718 pixels
Display aspect ratio                     : 16:9
Frame rate mode                          : Constant
Frame rate                               : 23.976 (24000/1001) fps
Color space                              : YUV
Chroma subsampling                       : 4:2:0
Bit depth                                : 8 bits
Scan type                                : Progressive
Bits/(Pixel*Frame)                       : 0.183
Stream size                              : 1.20 GiB (90%)
Title                                    : iZombie.S03E03.720p.WEB-DL.DD5.1.H264-RARBG
Language                                 : English
Default                                  : Yes
Forced                                   : No
Color range                              : Limited
Color primaries                          : BT.709
Transfer characteristics                 : BT.709
Matrix coefficients                      : BT.709

Audio
ID                                       : 2
Format                                   : AC-3
Format/Info                              : Audio Coding 3
Mode extension                           : CM (complete main)
Format settings, Endianness              : Big
Codec ID                                 : A_AC3
Duration                                 : 42mn 22s
Bit rate mode                            : Constant
Bit rate                                 : 384 Kbps
Channel(s)                               : 6 channels
Channel positions                        : Front: L C R, Side: L R, LFE
Sampling rate                            : 48.0 KHz
Frame rate                               : 31.250 fps (1536 spf)
Compression mode                         : Lossy
Stream size                              : 116 MiB (9%)
Title                                    : iZombie.S03E03.720p.WEB-DL.DD5.1.H264-RARBG
Language                                 : English
Default                                  : Yes
Forced                                   : No

Text #1
ID                                       : 3
Format                                   : UTF-8
Codec ID                                 : S_TEXT/UTF8
Codec ID/Info                            : UTF-8 Plain Text
Language                                 : English
Default                                  : Yes
Forced                                   : No

Text #2
ID                                       : 4
Format                                   : UTF-8
Codec ID                                 : S_TEXT/UTF8
Codec ID/Info                            : UTF-8 Plain Text
Title                                    : SDH
Language                                 : English
Default                                  : No
Forced                                   : No



[/mediainfo]
Download
File Container: MKV
Video/Audio Codec: H264 (HIGH) AC3
Video Resolution: 1280x718
 
 
 
 

Show us some love

Leave a Comment

  • (never displayed)
  •  
        Members don't see captchas. Sign Up / Sign In
  • Notify me via email when someone responds.
  • Subscribe my Feeds
  • Facebook

Latest Episodes

Popular Movies and TV Shows

  • Hunter x Hunter
  • The Simpsons
  • Lupin III
  • Cars 3
  • Bushwick
  • American Made
  • The Last Post
  • Outlander
  • Dirk Gently's Holistic Detective Agency
  • Inside Job
  • Anna
  • The Poughkeepsie Tapes
  • Gunpowder
  • Glitch
  • Bad Blood
  • Close Encounters of the Third Kind
  • Wheelman
  • Teen Wolf
  • Inhumans
  • Superstition
  • Spider-Man
  • Die unendliche Geschichte
  • The Adventurers
  • Jungle
  • The Exorcist

Recent Comments