Sign Up   |   Sign In  

Announcements

Want to support us?
Buy a RapidRAR account from our resellers:
Buy or renew a NitroFlare account via THIS LINK

04/19

2017

No

Comments

iZombie S03E03 WEB-DL x264-RARBG
[RR/NF/UL/OL/OLw/UR/CU]
Size: 261MB mp4 H264 (HIGH) (AVC1) / AAC (LC) (MP4A) 720x400

iZombie
Click on the image to see full size
[RR/NF/UL/OL/OLw/UR/CU] iZombie S03E03 WEB-DL x264-RARBG (261MB) - Snapshot 1[RR/NF/UL/OL/OLw/UR/CU] iZombie S03E03 WEB-DL x264-RARBG (261MB) - Snapshot 2
File Information
[URL]http://www.imdb.com/title/tt3501584/[/URL]
[screenshots]
[URL=http://imagecurl.com/viewer.php?file=03816681983863391940.png][IMG]http://imagecurl.com/images/03816681983863391940_thumb.png[/IMG][/URL]
[URL=http://imagecurl.com/viewer.php?file=77698407554878833860.png][IMG]http://imagecurl.com/images/77698407554878833860_thumb.png[/IMG][/URL]
[URL=http://imagecurl.com/viewer.php?file=29013307360678446756.png][IMG]http://imagecurl.com/images/29013307360678446756_thumb.png[/IMG][/URL]
[URL=http://imagecurl.com/viewer.php?file=49143303082583233551.png][IMG]http://imagecurl.com/images/49143303082583233551_thumb.png[/IMG][/URL]

[/screenshots]


[mediainfo]
Video
ID                                       : 1
Format                                   : AVC
Format/Info                              : Advanced Video Codec
Format profile                           : High@L3.1
Format settings, CABAC                   : Yes
Format settings, ReFrames                : 5 frames
Codec ID                                 : avc1
Codec ID/Info                            : Advanced Video Coding
Duration                                 : 42mn 22s
Bit rate                                 : 730 Kbps
Width                                    : 720 pixels
Height                                   : 400 pixels
Display aspect ratio                     : 16:9
Original display aspect ratio            : 16:9
Frame rate mode                          : Constant
Frame rate                               : 23.976 (24000/1001) fps
Color space                              : YUV
Chroma subsampling                       : 4:2:0
Bit depth                                : 8 bits
Scan type                                : Progressive
Bits/(Pixel*Frame)                       : 0.106
Stream size                              : 221 MiB (85%)
Title                                    : RARBG.COM - iZombie.S03E03.WEB-DL.x264-RARBG
Writing library                          : x264 core 148 r2597M e86f3a1
 Encoding settings                        : cabac=1 / ref=5 / deblock=1:-1:-1 / analyse=0x3:0x113 / me=umh / subme=9 / psy=1 / psy_rd=1.00:0.15 / mixed_ref=1 / me_range=16 / chroma_me=1 / trellis=2 / 8x8dct=1 / cqm=0 / deadz / fast pskip=1 / chroma_qp_offset=-3 / threads=12 / lookahead_threads=1 / sliced_threads=0 / nr=0 / decimate=1 / interlaced=0 / bluray_compat=0 / c / bframes=3 / b_pyramid=2 / b_adapt=2 / b_bias=0 / direct=3 / weightb=1 / open_gop=0 / weightp=2 / keyint=250 / keyint_min=23 / scenecut=40 / intra_refresh=0 / rc_lookahead=50 / rc=crf / mbtree=1 / crf=19.0 / qcomp=0.60 / qpmin=0 / qpmax=69 / qpstep=4 / ip_ratio=1.40 / aq=1:1.00
Language                                 : English
Encoded date                             : UTC 2017-04-19 09:25:29
Tagged date                              : UTC 2017-04-19 09:25:29

Audio
ID                                       : 2
Format                                   : AAC
Format/Info                              : Advanced Audio Codec
Format profile                           : LC
Codec ID                                 : 40
Duration                                 : 42mn 22s
Duration_LastFrame                       : -11ms
Bit rate mode                            : Constant
Bit rate                                 : 128 Kbps
Channel(s)                               : 2 channels
Channel positions                        : Front: L R
Sampling rate                            : 48.0 KHz
Frame rate                               : 46.875 fps (1024 spf)
Compression mode                         : Lossy
Stream size                              : 38.8 MiB (15%)
Title                                    : RARBG.COM - iZombie.S03E03.WEB-DL.x264-RARBG
Language                                 : English
Default                                  : Yes
Alternate group                          : 1
Encoded date                             : UTC 2017-04-19 09:25:29
Tagged date                              : UTC 2017-04-19 09:25:29



[/mediainfo]
Download
File Container: MP4
Video/Audio Codec: H264 (HIGH) (AVC1) AAC (LC) (MP4A)
Video Resolution: 720x400
 
 
 
 
 
 
Watch Online [MP4]

Show us some love

Leave a Comment

  • (never displayed)
  •  
        Members don't see captchas. Sign Up / Sign In
  • Notify me via email when someone responds.
  • Subscribe my Feeds
  • Facebook

Latest Episodes

Popular Movies and TV Shows

  • Game of Thrones
  • Shooter
  • Baywatch
  • Manhunt: Unabomber
  • The Farthest
  • Williams
  • Animal Kingdom
  • Wrecked
  • Quacks
  • Security
  • Dunkirk
  • The Dark Tower
  • Somewhere Between
  • Preacher
  • Trust Me
  • Night Moves
  • Batman and Harley Quinn
  • Goon: Last of the Enforcers
  • Midnight, Texas
  • Shadowhunters
  • American Dad!
  • Alien Reign of Man
  • Space Milkshake
  • Oceans Rising
  • The Strain

Recent Comments

  • John65ds4f: @Admin: Thank you very much. With the amount of traffic and comments on this site, it's an amazing w...
  • Admin:

    1080p source:
    http://rmz.cr/release/game-of-thrones-s07e06-480p-hdtv-x264-rmteam

  • thaone: Thanks..for the early leaked...awesome episode.....Jon Snow, Jorah Mormont, Thoros of Myr, Sandor Cl...
  • thaone:

    Thank You

  • thaone: Thanks.....awesome episode.....Jon Snow, Jorah Mormont, Thoros of Myr, Sandor Clegane ("The Hou...
  • thaone: Thanks.....awesome episode.....Jon Snow, Jorah Mormont, Thoros of Myr, Sandor Clegane ("The Hou...
  • peymanusa:

    GAME OF THRONES S07E06 LEAKED 1080P HEVC X265-RMTEAM

  • Zarta:

    can't reupload?

  • Nick75:

    in mp4 format please.

  • Alex 46:

    hevc please