Sign Up   |   Sign In  

Announcements

Want to support us?
Buy a RapidRAR account from our resellers:
Buy or renew a NitroFlare account via THIS LINK
We'll stop uploading files to Uploaded.net in December 2017.
Until further notice, We will continue uploading files to uploaded.net.

04/19

2017

No

Comments

iZombie S03E03 WEBRip X264-RARBG
[RR/NF/UL/OL/OLw/UR]
Size: 374MB mp4 H264 (HIGH) (AVC1) / AAC (LC) (MP4A) 720x400

iZombie
Click on the image to see full size
[RR/NF/UL/OL/OLw/UR] iZombie S03E03 WEBRip X264-RARBG (374MB) - Snapshot 1[RR/NF/UL/OL/OLw/UR] iZombie S03E03 WEBRip X264-RARBG (374MB) - Snapshot 2
File Information
[URL]http://www.imdb.com/title/tt3501584/[/URL]
[screenshots]
[URL=http://imagecurl.com/viewer.php?file=48913369816295832895.png][IMG]http://imagecurl.com/images/48913369816295832895_thumb.png[/IMG][/URL]
[URL=http://imagecurl.com/viewer.php?file=49184952168434613800.png][IMG]http://imagecurl.com/images/49184952168434613800_thumb.png[/IMG][/URL]
[URL=http://imagecurl.com/viewer.php?file=67902696967620418223.png][IMG]http://imagecurl.com/images/67902696967620418223_thumb.png[/IMG][/URL]
[URL=http://imagecurl.com/viewer.php?file=47536086796521507902.png][IMG]http://imagecurl.com/images/47536086796521507902_thumb.png[/IMG][/URL]

[/screenshots]


[mediainfo]
Video
ID                                       : 1
Format                                   : AVC
Format/Info                              : Advanced Video Codec
Format profile                           : [email protected]
Format settings, CABAC                   : Yes
Format settings, ReFrames                : 5 frames
Codec ID                                 : avc1
Codec ID/Info                            : Advanced Video Coding
Duration                                 : 42mn 22s
Bit rate                                 : 1 100 Kbps
Width                                    : 720 pixels
Height                                   : 400 pixels
Display aspect ratio                     : 16:9
Frame rate mode                          : Constant
Frame rate                               : 23.976 (24000/1001) fps
Color space                              : YUV
Chroma subsampling                       : 4:2:0
Bit depth                                : 8 bits
Scan type                                : Progressive
Bits/(Pixel*Frame)                       : 0.159
Stream size                              : 334 MiB (89%)
Title                                    : RARBG.COM - iZombie.S03E03.WEBRip.X264-RARBG
Writing library                          : x264 core 148 r2597M e86f3a1
 Encoding settings                        : cabac=1 / ref=5 / deblock=1:-1:-1 / analyse=0x3:0x113 / me=umh / subme=9 / psy=1 / psy_rd=1.00:0.15 / mixed_ref=1 / me_range=16 / chroma_me=1 / trellis=2 / 8x8dct=1 / cqm=0 / deadz / fast pskip=1 / chroma_qp_offset=-3 / threads=12 / lookahead_threads=1 / sliced_threads=0 / nr=0 / decimate=1 / interlaced=0 / bluray_compat=0 / c / bframes=3 / b_pyramid=2 / b_adapt=2 / b_bias=0 / direct=3 / weightb=1 / open_gop=0 / weightp=2 / keyint=250 / keyint_min=23 / scenecut=40 / intra_refresh=0 / rc_lookahead=50 / rc=abr / mbtree=1 / bitrate=1100 / ratetol=1.0 / qcomp=0.60 / qpmin=0 / qpmax=69 / qpstep=4 / ip_ratio=1.40 / aq=1:1.00
Language                                 : English
Encoded date                             : UTC 2017-04-19 13:56:08
Tagged date                              : UTC 2017-04-19 13:56:08

Audio
ID                                       : 2
Format                                   : AAC
Format/Info                              : Advanced Audio Codec
Format profile                           : LC
Codec ID                                 : 40
Duration                                 : 42mn 22s
Bit rate mode                            : Constant
Bit rate                                 : 128 Kbps
Channel(s)                               : 2 channels
Channel positions                        : Front: L R
Sampling rate                            : 48.0 KHz
Frame rate                               : 46.875 fps (1024 spf)
Compression mode                         : Lossy
Stream size                              : 38.8 MiB (10%)
Title                                    : RARBG.COM - iZombie.S03E03.WEBRip.X264-RARBG
Language                                 : English
Default                                  : Yes
Alternate group                          : 1
Encoded date                             : UTC 2017-04-19 13:56:08
Tagged date                              : UTC 2017-04-19 13:56:08



[/mediainfo]
Download
File Container: MP4
Video/Audio Codec: H264 (HIGH) (AVC1) AAC (LC) (MP4A)
Video Resolution: 720x400
 
 
 
 
 
Watch Online [MP4]

Show us some love

Leave a Comment

  • (never displayed)
  •  
        Members don't see captchas. Sign Up / Sign In
  • Notify me via email when someone responds.
  • Subscribe my Feeds
  • Facebook

Latest Episodes

Popular Movies and TV Shows

  • It
  • Shameless
  • Good Behavior
  • Search Party
  • Le scandale
  • Star Wars: Episode VIII - The Last Jedi
  • SMILF
  • Madam Secretary
  • NCIS: Los Angeles
  • Stasis
  • Crooked House
  • Underverden
  • The Girlfriend Experience
  • Wisdom of the Crowd
  • Dirk Gently's Holistic Detective Agency
  • The Foreigner
  • You, Me and Him
  • 'I Know Where I'm Going!'
  • Ten Days in the Valley
  • Saturday Night Live
  • Agents of S.H.I.E.L.D.
  • Die Hard
  • Kiss Kiss Bang Bang
  • Die Hard 2
  • Blindspot

Recent Comments

  • White_Bike:

    Thanks!

  • thaone:

    Thank You

  • yodameister: Why do people thank for videos that are highly out of sync ? Check to see if it works properly first...
  • thaone:

    Thank You

  • Hankerciser200:

    Webrip source is flawed? First 11 mins or so has a/v sync problem.

  • shak3:

    tst

  • thaone:

    Thank You

  • yes.please: PS .. continuing, "Beyblade Burst Evolution" Eng dub series ; from the original Japanese...
  • MTV:

    thanks for the Post

  • testal:

    heavily asynchron audio (about 9-10 sec off video)