Sign Up   |   Sign In  
ParishRed EyeThe Spiderwick ChroniclesBeverly Hills Cop IIHouse on Haunted HillHarry Potter and the Deathly Hallows: Part 2Beacon 23S.W.A.T.Cyborg 2: Glass ShadowRebel Moon - Part Two: The ScargiverGhostbusters: Frozen Empire48 HoursBlueyA Dangerous AffairFalloutYoung SheldonAbigailLate Night with the DevilReal Time with Bill MaherBeyond ParadiseVeepWhite BirdOnce Upon a Time in AmericaDune: Part TwoSugar

Announcements

02/22

2024

No

Comments

Jellystone S03E09 Jellystone Noir 1080p AMZN WEB-DL DDP5 1 H 264-NTb
[RR/NF/CU]
Size: 412MB mkv H264 (HIGH) / EAC3  HD  1920x1080

Jellystone
File Information
[img]http://lookpic.com/cdn/i2/t/0222202410350413-1.jpg[/img]
[img]http://lookpic.com/cdn/i2/t/0222202410350413-2.jpg[/img]
[img]http://lookpic.com/cdn/i2/t/0222202410350413-3.jpg[/img]

General
Unique ID                                : 290989114569236438354412323834616258981 (0xDAEA770541BC259AD54F9DD2C0C2A1A5)
Complete name                            : Jellystone.S03E09.Jellystone.Noir.1080p.AMZN.WEB-DL.DDP5.1.H.264-NTb.mkv
Format                                   : Matroska
Format version                           : Version 4
File size                                : 412 MiB
Duration                                 : 11 min 14 s
Overall bit rate                         : 5 123 kb/s
Frame rate                               : 23.976 FPS
Writing application                      : mkvmerge v80.0 ('Roundabout') 64-bit
Writing library                          : libebml v1.4.4 + libmatroska v1.7.1

Video
ID                                       : 1
Format                                   : AVC
Format/Info                              : Advanced Video Codec
Format profile                           : High@L4
Format settings                          : CABAC / 4 Ref Frames
Format settings, CABAC                   : Yes
Format settings, Reference frames        : 4 frames
Codec ID                                 : V_MPEG4/ISO/AVC
Duration                                 : 11 min 14 s
Bit rate mode                            : Constant
Bit rate                                 : 4 480 kb/s
Nominal bit rate                         : 10 000 kb/s
Width                                    : 1 920 pixels
Height                                   : 1 080 pixels
Display aspect ratio                     : 16:9
Frame rate mode                          : Constant
Frame rate                               : 23.976 (24000/1001) FPS
Color space                              : YUV
Chroma subsampling                       : 4:2:0
Bit depth                                : 8 bits
Scan type                                : Progressive
Bits/(Pixel*Frame)                       : 0.090
Stream size                              : 360 MiB (87%)
Default                                  : Yes
Forced                                   : No
Color range                              : Limited
Color primaries                          : BT.709
Transfer characteristics                 : BT.709
Matrix coefficients                      : BT.709

Audio
ID                                       : 2
Format                                   : E-AC-3
Format/Info                              : Enhanced AC-3
Commercial name                          : Dolby Digital Plus
Codec ID                                 : A_EAC3
Duration                                 : 11 min 14 s
Bit rate mode                            : Constant
Bit rate                                 : 640 kb/s
Channel(s)                               : 6 channels
Channel layout                           : L R C LFE Ls Rs
Sampling rate                            : 48.0 kHz
Frame rate                               : 31.250 FPS (1536 SPF)
Compression mode                         : Lossy
Stream size                              : 51.5 MiB (12%)
Language                                 : English (US)
Service kind                             : Complete Main
Default                                  : Yes
Forced                                   : No

Text #1
ID                                       : 3
Format                                   : UTF-8
Codec ID                                 : S_TEXT/UTF8
Codec ID/Info                            : UTF-8 Plain Text
Duration                                 : 10 min 24 s
Bit rate                                 : 100 b/s
Frame rate                               : 0.386 FPS
Count of elements                        : 241
Stream size                              : 7.66 KiB (0%)
Language                                 : English (US)
Default                                  : No
Forced                                   : No

Text #2
ID                                       : 4
Format                                   : UTF-8
Codec ID                                 : S_TEXT/UTF8
Codec ID/Info                            : UTF-8 Plain Text
Duration                                 : 11 min 1 s
Bit rate                                 : 106 b/s
Frame rate                               : 0.414 FPS
Count of elements                        : 274
Stream size                              : 8.59 KiB (0%)
Title                                    : SDH
Language                                 : English (US)
Default                                  : No
Forced                                   : No

Text #3
ID                                       : 5
Format                                   : UTF-8
Codec ID                                 : S_TEXT/UTF8
Codec ID/Info                            : UTF-8 Plain Text
Duration                                 : 10 min 28 s
Bit rate                                 : 87 b/s
Frame rate                               : 0.372 FPS
Count of elements                        : 234
Stream size                              : 6.72 KiB (0%)
Language                                 : Spanish (Latin America)
Default                                  : No
Forced                                   : No

Text #4
ID                                       : 6
Format                                   : UTF-8
Codec ID                                 : S_TEXT/UTF8
Codec ID/Info                            : UTF-8 Plain Text
Duration                                 : 10 min 24 s
Bit rate                                 : 105 b/s
Frame rate                               : 0.367 FPS
Count of elements                        : 229
Stream size                              : 8.02 KiB (0%)
Language                                 : Portuguese (BR)
Default                                  : No
Forced                                   : No



Download
File Container: MKV
Video/Audio Codec: H264 (HIGH) EAC3
Video Resolution: 1920x1080
Please Login to post a comment.
If you don't have any account, please Register.
  • Subscribe my Feeds
  • Facebook
Encoding Queue:  x264  x265

Latest Episodes

Popular Movies and TV Shows

  • Parish
  • Red Eye
  • The Spiderwick Chronicles
  • Beverly Hills Cop II
  • House on Haunted Hill
  • Harry Potter and the Deathly Hallows: Part 2
  • Beacon 23
  • S.W.A.T.
  • Cyborg 2: Glass Shadow
  • Rebel Moon - Part Two: The Scargiver
  • Ghostbusters: Frozen Empire
  • 48 Hours
  • Bluey
  • A Dangerous Affair
  • Fallout
  • Young Sheldon
  • Abigail
  • Late Night with the Devil
  • Real Time with Bill Maher
  • Beyond Paradise
  • Veep
  • White Bird
  • Once Upon a Time in America
  • Dune: Part Two
  • Sugar

Recent Comments

  • kellym2: I appreciate all the hard work the team does BUT there is no point in my paying for a Premium subscr...
  • Cinque_Persson: Why not skip the old news and hearsay and be constructive: what's the best alternatives for Win, Mac...
  • fallensammer:

    the file on click upload is 119mg onnly and is corrupted

  • ronkanon:

    Could you please provide a ClicknUpload link?

  • ronkanon:

    Could you please provide a ClicknUpload link?

  • waanaabe: Could you Kindly Upload the SOUTH PARK seasons to CU as well? Would be really appreciated
  • gusmac67:

    Clickupload link is corrupt. File bad at 38 min

  • timt:

    Narrated Movie!

  • Richardexamp: I recently stumbled upon https://asiancasinos.org/ and I obligated to symbolize, it has with dispatc...
  • 23d1:

    ClicknUpload link is missing

  • yopo:

    NitroFlare's link is missing !!!

  • yopo:

    NitroFlare's link is missing !!!

  • yopo:

    NitroFlare's link is missing !!!
    Clicknupload's link is missing !!!

  • yopo:

    NitroFlare's link is missing !!!

  • dragonnightfire: I have tried contacting Rapid Rar to find out what is going on with the server maintainance. I am no...
  • dragonnightfire:

    RR links dead on 5 eps

  • Draveren: hi. can we solve this "server under maintenance" stuff, already? if back in the day i'd ke...
  • Majnon: The links are dead. Please re-upload
  • timt:

    Anyone have the movie "Shoot" (1976) to post?

  • Nightshade: Hey, it appears at least the RMTeam separate episodes and ION's packs for the first two seasons of t...

Archives