Sign Up   |   Sign In  
ShogunImmaculateNCISNCIS: Hawai'iSweet DreamsJimmy Carr: Natural Born KillerThe NeighborhoodSpring BreakersBob Hearts AbisholaAll AmericanThe Crow: SalvationThe Fantastic Journey of Margot & MargueriteThe SympathizerTrackerDune: Part TwoFamily GuyThe 100th: Billy Joel at Madison Square Garden - The Greatest Arena Run of All TimeKiller Fortune TellerThe Great NorthHundreds of BeaversModel HouseWhen Calls the HeartThe Bold and the BeautifulAbba: How They Won EurovisionFallout

Announcements

02/22

2024

No

Comments

Jellystone S03E11 Collection Protection 1080p AMZN WEB-DL DDP5 1 H 264-NTb
[RR/NF/CU]
Size: 486MB mkv H264 (HIGH) / EAC3  HD  1920x1080

Jellystone
File Information
[img]http://lookpic.com/cdn/i2/t/0222202410351443-1.jpg[/img]
[img]http://lookpic.com/cdn/i2/t/0222202410351443-2.jpg[/img]
[img]http://lookpic.com/cdn/i2/t/0222202410351443-3.jpg[/img]

General
Unique ID                                : 229966566632091849667011351761944556738 (0xAD01F31EC88A64044A85EB74F773B4C2)
Complete name                            : Jellystone.S03E11.Collection.Protection.1080p.AMZN.WEB-DL.DDP5.1.H.264-NTb.mkv
Format                                   : Matroska
Format version                           : Version 4
File size                                : 487 MiB
Duration                                 : 11 min 13 s
Overall bit rate                         : 6 059 kb/s
Frame rate                               : 23.976 FPS
Writing application                      : mkvmerge v80.0 ('Roundabout') 64-bit
Writing library                          : libebml v1.4.4 + libmatroska v1.7.1

Video
ID                                       : 1
Format                                   : AVC
Format/Info                              : Advanced Video Codec
Format profile                           : High@L4
Format settings                          : CABAC / 4 Ref Frames
Format settings, CABAC                   : Yes
Format settings, Reference frames        : 4 frames
Codec ID                                 : V_MPEG4/ISO/AVC
Duration                                 : 11 min 13 s
Bit rate mode                            : Constant
Bit rate                                 : 5 417 kb/s
Nominal bit rate                         : 10 000 kb/s
Width                                    : 1 920 pixels
Height                                   : 1 080 pixels
Display aspect ratio                     : 16:9
Frame rate mode                          : Constant
Frame rate                               : 23.976 (24000/1001) FPS
Color space                              : YUV
Chroma subsampling                       : 4:2:0
Bit depth                                : 8 bits
Scan type                                : Progressive
Bits/(Pixel*Frame)                       : 0.109
Stream size                              : 435 MiB (89%)
Default                                  : Yes
Forced                                   : No
Color range                              : Limited
Color primaries                          : BT.709
Transfer characteristics                 : BT.709
Matrix coefficients                      : BT.709

Audio
ID                                       : 2
Format                                   : E-AC-3
Format/Info                              : Enhanced AC-3
Commercial name                          : Dolby Digital Plus
Codec ID                                 : A_EAC3
Duration                                 : 11 min 13 s
Bit rate mode                            : Constant
Bit rate                                 : 640 kb/s
Channel(s)                               : 6 channels
Channel layout                           : L R C LFE Ls Rs
Sampling rate                            : 48.0 kHz
Frame rate                               : 31.250 FPS (1536 SPF)
Compression mode                         : Lossy
Stream size                              : 51.4 MiB (11%)
Language                                 : English (US)
Service kind                             : Complete Main
Default                                  : Yes
Forced                                   : No

Text #1
ID                                       : 3
Format                                   : UTF-8
Codec ID                                 : S_TEXT/UTF8
Codec ID/Info                            : UTF-8 Plain Text
Duration                                 : 10 min 22 s
Bit rate                                 : 95 b/s
Frame rate                               : 0.382 FPS
Count of elements                        : 238
Stream size                              : 7.29 KiB (0%)
Language                                 : English (US)
Default                                  : No
Forced                                   : No

Text #2
ID                                       : 4
Format                                   : UTF-8
Codec ID                                 : S_TEXT/UTF8
Codec ID/Info                            : UTF-8 Plain Text
Duration                                 : 10 min 59 s
Bit rate                                 : 102 b/s
Frame rate                               : 0.420 FPS
Count of elements                        : 277
Stream size                              : 8.28 KiB (0%)
Title                                    : SDH
Language                                 : English (US)
Default                                  : No
Forced                                   : No

Text #3
ID                                       : 5
Format                                   : UTF-8
Codec ID                                 : S_TEXT/UTF8
Codec ID/Info                            : UTF-8 Plain Text
Duration                                 : 10 min 25 s
Bit rate                                 : 92 b/s
Frame rate                               : 0.331 FPS
Count of elements                        : 207
Stream size                              : 7.08 KiB (0%)
Language                                 : Spanish (Latin America)
Default                                  : No
Forced                                   : No

Text #4
ID                                       : 6
Format                                   : UTF-8
Codec ID                                 : S_TEXT/UTF8
Codec ID/Info                            : UTF-8 Plain Text
Duration                                 : 10 min 25 s
Bit rate                                 : 99 b/s
Frame rate                               : 0.329 FPS
Count of elements                        : 206
Stream size                              : 7.61 KiB (0%)
Language                                 : Portuguese (BR)
Default                                  : No
Forced                                   : No



Download
File Container: MKV
Video/Audio Codec: H264 (HIGH) EAC3
Video Resolution: 1920x1080
Please Login to post a comment.
If you don't have any account, please Register.
  • Subscribe my Feeds
  • Facebook
Encoding Queue:  x264  x265

Latest Episodes

Popular Movies and TV Shows

  • Shogun
  • Immaculate
  • NCIS
  • NCIS: Hawai'i
  • Sweet Dreams
  • Jimmy Carr: Natural Born Killer
  • The Neighborhood
  • Spring Breakers
  • Bob Hearts Abishola
  • All American
  • The Crow: Salvation
  • The Fantastic Journey of Margot & Marguerite
  • The Sympathizer
  • Tracker
  • Dune: Part Two
  • Family Guy
  • The 100th: Billy Joel at Madison Square Garden - The Greatest Arena Run of All Time
  • Killer Fortune Teller
  • The Great North
  • Hundreds of Beavers
  • Model House
  • When Calls the Heart
  • The Bold and the Beautiful
  • Abba: How They Won Eurovision
  • Fallout

Recent Comments

  • kellym2: Why am I getting "Server is in maintenance mode" on some episodes of a series and not on o...
  • Bud:

    Are you ever going to put up Thursday's episode with Liev Schreiber?

  • alp-engin:

    When will that maintenance be over? Please...

  • mentalityx:

    Rad bloke

  • DownloadHostInspector:

    so far these RMTeam uploads always have a working link. DownloadHostInspector approved!

  • DownloadHostInspector:

    ah yes, this upload has a host that works. clicknupload. DownloadHostInspector approved!

  • DownloadHostInspector: Why are all the download hosts trash? none of them let you download it
  • Qua4ratic:

    clicknupload link plz

  • ppoo:

    Please, can you add "Real Time with Bill Maher S22E11" ??

  • theahtisham:

    Kindly upload Ep. 3 and 4 as well.

Archives