Sign Up   |   Sign In  

Announcements

Want to support us?
Buy a RapidRAR account from our resellers:
Buy or renew a NitroFlare account via THIS LINK

04/18

2017

No

Comments

Kevin Can Wait S01E22 WEB-DL x264-RARBG
[RR/NF/UL/OL/OLw/UR]
Size: 153MB mp4 H264 (HIGH) (AVC1) / AAC (LC) (MP4A) 720x400

Kevin Can Wait
Click on the image to see full size
[RR/NF/UL/OL/OLw/UR] Kevin Can Wait S01E22 WEB-DL x264-RARBG (153MB) - Snapshot 1[RR/NF/UL/OL/OLw/UR] Kevin Can Wait S01E22 WEB-DL x264-RARBG (153MB) - Snapshot 2
File Information
[URL]http://www.imdb.com/title/tt5462720/[/URL]
[screenshots]
[URL=http://imagecurl.com/viewer.php?file=00181715317428807557.png][IMG]http://imagecurl.com/images/00181715317428807557_thumb.png[/IMG][/URL]
[URL=http://imagecurl.com/viewer.php?file=63651605447909481628.png][IMG]http://imagecurl.com/images/63651605447909481628_thumb.png[/IMG][/URL]

[/screenshots]


[mediainfo]
Video
ID                                       : 1
Format                                   : AVC
Format/Info                              : Advanced Video Codec
Format profile                           : [email protected]
Format settings, CABAC                   : Yes
Format settings, ReFrames                : 5 frames
Codec ID                                 : avc1
Codec ID/Info                            : Advanced Video Coding
Duration                                 : 21mn 22s
Bit rate                                 : 872 Kbps
Width                                    : 720 pixels
Height                                   : 400 pixels
Display aspect ratio                     : 16:9
Frame rate mode                          : Constant
Frame rate                               : 23.976 (24000/1001) fps
Color space                              : YUV
Chroma subsampling                       : 4:2:0
Bit depth                                : 8 bits
Scan type                                : Progressive
Bits/(Pixel*Frame)                       : 0.126
Stream size                              : 133 MiB (87%)
Title                                    : RARBG.COM - Kevin.Can.Wait.S01E22.WEB-DL.x264-RARBG
Writing library                          : x264 core 148 r2597M e86f3a1
 Encoding settings                        : cabac=1 / ref=5 / deblock=1:-1:-1 / analyse=0x3:0x113 / me=umh / subme=9 / psy=1 / psy_rd=1.00:0.15 / mixed_ref=1 / me_range=16 / chroma_me=1 / trellis=2 / 8x8dct=1 / cqm=0 / deadz / fast pskip=1 / chroma_qp_offset=-3 / threads=12 / lookahead_threads=1 / sliced_threads=0 / nr=0 / decimate=1 / interlaced=0 / bluray_compat=0 / c / bframes=3 / b_pyramid=2 / b_adapt=2 / b_bias=0 / direct=3 / weightb=1 / open_gop=0 / weightp=2 / keyint=250 / keyint_min=23 / scenecut=40 / intra_refresh=0 / rc_lookahead=50 / rc=crf / mbtree=1 / crf=19.0 / qcomp=0.60 / qpmin=0 / qpmax=69 / qpstep=4 / ip_ratio=1.40 / aq=1:1.00
Language                                 : English
Encoded date                             : UTC 2017-04-18 21:55:18
Tagged date                              : UTC 2017-04-18 21:55:18

Audio
ID                                       : 2
Format                                   : AAC
Format/Info                              : Advanced Audio Codec
Format profile                           : LC
Codec ID                                 : 40
Duration                                 : 21mn 23s
Bit rate mode                            : Constant
Bit rate                                 : 128 Kbps
Channel(s)                               : 2 channels
Channel positions                        : Front: L R
Sampling rate                            : 48.0 KHz
Frame rate                               : 46.875 fps (1024 spf)
Compression mode                         : Lossy
Stream size                              : 19.6 MiB (13%)
Title                                    : RARBG.COM - Kevin.Can.Wait.S01E22.WEB-DL.x264-RARBG
Language                                 : English
Default                                  : Yes
Alternate group                          : 1
Encoded date                             : UTC 2017-04-18 21:55:18
Tagged date                              : UTC 2017-04-18 21:55:18



[/mediainfo]
Download
File Container: MP4
Video/Audio Codec: H264 (HIGH) (AVC1) AAC (LC) (MP4A)
Video Resolution: 720x400
 
 
 
 
 
Watch Online [MP4]

Show us some love

Leave a Comment

  • (never displayed)
  •  
        Members don't see captchas. Sign Up / Sign In
  • Notify me via email when someone responds.
  • Subscribe my Feeds
  • Facebook

Latest Episodes

Popular Movies and TV Shows

  • John Wick: Chapter 2
  • Better Call Saul
  • Gotham
  • Supergirl
  • The Devil's Candy
  • Logan
  • Twin Peaks
  • Lucifer
  • Casual
  • Grave
  • Free Fire
  • Jonny's Sweet Revenge
  • Outcast
  • Angie Tribeca
  • I'm Dying Up Here
  • Bacalaureat
  • Danger Close
  • The Wizard of Lies
  • Into the Badlands
  • Silicon Valley
  • 12 Monkeys
  • The LEGO Batman Movie
  • Beauty and the Beast
  • Buster's Mal Heart
  • American Gods

Recent Comments

  • MahBoff:

    Thanks! :)

  • x265Addict: @Admin Why you are not uploading EVO's 720p and 1080p WEB-DLs. You are uploading only FGT's 1080 WEB...
  • x265Addict: @Admin Why you are not uploading EVO's 720p and 1080p WEB-DLs. You are uploading only FGT's 1080 WEB...
  • M1st3rN0b0d7: Please release x265,Thanks !
  • x265Addict: This is working through Internet Explorer. Page is not loading. This is S#it. -_- Make browser with ...
  • MahBoff:

    Thank you for the 720/hevc webrip!

  • bigbadbryce: SIX S01 BDRip x264-DEMAND @admin. I have tried several times to d/load from RapidRAR "SIX"...
  • uploadedking:

    UPLOADED LINKS?

  • uploadedking:

    REUP UPLOADED PLEASE

  • uploadedking:

    UPLOADED PLEASE