Sign Up   |   Sign In  
The NeighborhoodNCIS: Hawai'iAll AmericanThe 100th: Billy Joel at Madison Square Garden - The Greatest Arena Run of All TimeDune: Part TwoKill Her GoatsBob Hearts AbisholaColumbia: The Final FlightBlue LightsKiller Fortune TellerHundreds of BeaversHapkidoThe SympathizerTrackerFamily GuyModel HouseAbba: How They Won EurovisionKurt Cobain: Moments That Shook MusicThe Great NorthWhen Calls the HeartSullivan's CrossingThe ChannelThe Batman vs. DraculaThere's Still TomorrowFallout

Announcements

02/17

2024

No

Comments

Kiff S01E53 Principal Helen 720p DSNP WEB-DL DDP5 1 H 264-NTb
[RR/NF/CU]
Size: 215MB mkv H264 (HIGH) / EAC3  HD  1280x720

Kiff
File Information
[img]http://lookpic.com/cdn/i2/t/0217202408125508-1.jpg[/img]
[img]http://lookpic.com/cdn/i2/t/0217202408125508-2.jpg[/img]
[img]http://lookpic.com/cdn/i2/t/0217202408125508-3.jpg[/img]

General
Unique ID                                : 239668139532624645133717469543645152072 (0xB44E679811C8F63D67D4F3A2D6358348)
Complete name                            : Kiff.S01E53.Principal.Helen.720p.DSNP.WEB-DL.DDP5.1.H.264-NTb.mkv
Format                                   : Matroska
Format version                           : Version 4
File size                                : 216 MiB
Duration                                 : 11 min 14 s
Overall bit rate mode                    : Variable
Overall bit rate                         : 2 685 kb/s
Frame rate                               : 23.976 FPS
Encoded date                             : 2024-02-14 18:39:28 UTC
Writing application                      : mkvmerge v82.0 ('I'm The President') 64-bit
Writing library                          : libebml v1.4.5 + libmatroska v1.7.1

Video
ID                                       : 1
Format                                   : AVC
Format/Info                              : Advanced Video Codec
Format profile                           : High@L3.1
Format settings                          : CABAC / 4 Ref Frames
Format settings, CABAC                   : Yes
Format settings, Reference frames        : 4 frames
Codec ID                                 : V_MPEG4/ISO/AVC
Duration                                 : 11 min 14 s
Bit rate mode                            : Variable
Bit rate                                 : 2 426 kb/s
Maximum bit rate                         : 6 375 kb/s
Width                                    : 1 280 pixels
Height                                   : 720 pixels
Display aspect ratio                     : 16:9
Frame rate mode                          : Constant
Frame rate                               : 23.976 (24000/1001) FPS
Color space                              : YUV
Chroma subsampling                       : 4:2:0
Bit depth                                : 8 bits
Scan type                                : Progressive
Bits/(Pixel*Frame)                       : 0.110
Time code of first frame                 : 00:00:00:0000000000
Stream size                              : 195 MiB (90%)
Default                                  : Yes
Forced                                   : No
Color range                              : Limited
Color primaries                          : BT.709
Transfer characteristics                 : BT.709
Matrix coefficients                      : BT.709

Audio
ID                                       : 2
Format                                   : E-AC-3
Format/Info                              : Enhanced AC-3
Commercial name                          : Dolby Digital Plus
Codec ID                                 : A_EAC3
Duration                                 : 11 min 14 s
Bit rate mode                            : Constant
Bit rate                                 : 256 kb/s
Channel(s)                               : 6 channels
Channel layout                           : L R C LFE Ls Rs
Sampling rate                            : 48.0 kHz
Frame rate                               : 31.250 FPS (1536 SPF)
Compression mode                         : Lossy
Stream size                              : 20.6 MiB (10%)
Language                                 : English
Service kind                             : Complete Main
Default                                  : Yes
Forced                                   : No

Text #1
ID                                       : 3
Format                                   : UTF-8
Codec ID                                 : S_TEXT/UTF8
Codec ID/Info                            : UTF-8 Plain Text
Duration                                 : 11 min 8 s
Bit rate                                 : 94 b/s
Frame rate                               : 0.326 FPS
Count of elements                        : 218
Stream size                              : 7.74 KiB (0%)
Language                                 : English
Default                                  : No
Forced                                   : No

Text #2
ID                                       : 4
Format                                   : UTF-8
Codec ID                                 : S_TEXT/UTF8
Codec ID/Info                            : UTF-8 Plain Text
Duration                                 : 11 min 10 s
Bit rate                                 : 105 b/s
Frame rate                               : 0.368 FPS
Count of elements                        : 247
Stream size                              : 8.66 KiB (0%)
Title                                    : SDH
Language                                 : English
Default                                  : No
Forced                                   : No

Text #3
ID                                       : 5
Format                                   : UTF-8
Codec ID                                 : S_TEXT/UTF8
Codec ID/Info                            : UTF-8 Plain Text
Duration                                 : 11 min 8 s
Bit rate                                 : 72 b/s
Frame rate                               : 0.302 FPS
Count of elements                        : 202
Stream size                              : 5.93 KiB (0%)
Language                                 : Japanese
Default                                  : No
Forced                                   : No

Text #4
ID                                       : 6
Format                                   : UTF-8
Codec ID                                 : S_TEXT/UTF8
Codec ID/Info                            : UTF-8 Plain Text
Duration                                 : 11 min 8 s
Bit rate                                 : 105 b/s
Frame rate                               : 0.313 FPS
Count of elements                        : 209
Stream size                              : 8.62 KiB (0%)
Language                                 : Korean
Default                                  : No
Forced                                   : No

Text #5
ID                                       : 7
Format                                   : UTF-8
Codec ID                                 : S_TEXT/UTF8
Codec ID/Info                            : UTF-8 Plain Text
Duration                                 : 11 min 8 s
Bit rate                                 : 76 b/s
Frame rate                               : 0.307 FPS
Count of elements                        : 205
Stream size                              : 6.26 KiB (0%)
Title                                    : Chinese (Hong Kong SAR China)
Language                                 : Chinese (HK)
Default                                  : No
Forced                                   : No

Text #6
ID                                       : 8
Format                                   : UTF-8
Codec ID                                 : S_TEXT/UTF8
Codec ID/Info                            : UTF-8 Plain Text
Duration                                 : 11 min 8 s
Bit rate                                 : 81 b/s
Frame rate                               : 0.307 FPS
Count of elements                        : 205
Stream size                              : 6.61 KiB (0%)
Title                                    : Chinese (Simplified)
Language                                 : Chinese (Simplified)
Default                                  : No
Forced                                   : No

Text #7
ID                                       : 9
Format                                   : UTF-8
Codec ID                                 : S_TEXT/UTF8
Codec ID/Info                            : UTF-8 Plain Text
Duration                                 : 11 min 8 s
Bit rate                                 : 78 b/s
Frame rate                               : 0.307 FPS
Count of elements                        : 205
Stream size                              : 6.38 KiB (0%)
Title                                    : Chinese (Traditional)
Language                                 : Chinese (Traditional)
Default                                  : No
Forced                                   : No



Download
File Container: MKV
Video/Audio Codec: H264 (HIGH) EAC3
Video Resolution: 1280x720
Please Login to post a comment.
If you don't have any account, please Register.
  • Subscribe my Feeds
  • Facebook
Encoding Queue:  x264  x265

Latest Episodes

Popular Movies and TV Shows

  • The Neighborhood
  • NCIS: Hawai'i
  • All American
  • The 100th: Billy Joel at Madison Square Garden - The Greatest Arena Run of All Time
  • Dune: Part Two
  • Kill Her Goats
  • Bob Hearts Abishola
  • Columbia: The Final Flight
  • Blue Lights
  • Killer Fortune Teller
  • Hundreds of Beavers
  • Hapkido
  • The Sympathizer
  • Tracker
  • Family Guy
  • Model House
  • Abba: How They Won Eurovision
  • Kurt Cobain: Moments That Shook Music
  • The Great North
  • When Calls the Heart
  • Sullivan's Crossing
  • The Channel
  • The Batman vs. Dracula
  • There's Still Tomorrow
  • Fallout

Recent Comments

  • Bud:

    Are you ever going to put up Thursday's episode with Liev Schreiber?

  • alp-engin:

    When will that maintenance be over? Please...

  • mentalityx:

    Rad bloke

  • DownloadHostInspector:

    so far these RMTeam uploads always have a working link. DownloadHostInspector approved!

  • DownloadHostInspector:

    ah yes, this upload has a host that works. clicknupload. DownloadHostInspector approved!

  • DownloadHostInspector: Why are all the download hosts trash? none of them let you download it
  • Qua4ratic:

    clicknupload link plz

  • ppoo:

    Please, can you add "Real Time with Bill Maher S22E11" ??

  • theahtisham:

    Kindly upload Ep. 3 and 4 as well.

Archives