Sign Up   |   Sign In  
Avatar: The Last AirbenderRed Right HandLovely, Dark, and DeepDigby DragonGoggleboxMatildaGhostsThe Woman in the WallYoung SheldonEasy StreetRibbleheadThe Heartbreak KidMasters of the AirSo Help Me ToddHaloHistory of EvilEarwormJenny Slate: Seasoned ProfessionalHightownLaw & Order: Special Victims UnitLaw & Order: Organized CrimeMoonedCellphoneTiger StripesResident Alien

Announcements

02/05

2024

No

Comments

Kiff S01E55 Fun Uncle Pat 1080p HULU WEB-DL DDP5 1 H 264-NTb
[RR/NF/CU]
Size: 408MB mkv H264 (HIGH) / EAC3  HD  1920x1080

Kiff
File Information
[img]http://lookpic.com/cdn/i2/t/0205202408285680-1.jpg[/img]
[img]http://lookpic.com/cdn/i2/t/0205202408285680-2.jpg[/img]
[img]http://lookpic.com/cdn/i2/t/0205202408285680-3.jpg[/img]

General
Unique ID                                : 196724442165116778534771509641866267304 (0x93FFBFD86855F6777E11B3ED39124AA8)
Complete name                            : Kiff.S01E55.Fun.Uncle.Pat.1080p.HULU.WEB-DL.DDP5.1.H.264-NTb.mkv
Format                                   : Matroska
Format version                           : Version 4
File size                                : 408 MiB
Duration                                 : 11 min 10 s
Overall bit rate                         : 5 106 kb/s
Frame rate                               : 23.976 FPS
Encoded date                             : 2024-02-03 15:49:02 UTC
Writing application                      : mkvmerge v82.0 ('I'm The President') 64-bit
Writing library                          : libebml v1.4.5 + libmatroska v1.7.1

Video
ID                                       : 1
Format                                   : AVC
Format/Info                              : Advanced Video Codec
Format profile                           : High@L4
Format settings                          : CABAC / 4 Ref Frames
Format settings, CABAC                   : Yes
Format settings, Reference frames        : 4 frames
Codec ID                                 : V_MPEG4/ISO/AVC
Duration                                 : 11 min 10 s
Bit rate                                 : 4 847 kb/s
Width                                    : 1 920 pixels
Height                                   : 1 080 pixels
Display aspect ratio                     : 16:9
Frame rate mode                          : Constant
Frame rate                               : 23.976 (24000/1001) FPS
Color space                              : YUV
Chroma subsampling                       : 4:2:0
Bit depth                                : 8 bits
Scan type                                : Progressive
Bits/(Pixel*Frame)                       : 0.098
Stream size                              : 388 MiB (95%)
Default                                  : Yes
Forced                                   : No

Audio
ID                                       : 2
Format                                   : E-AC-3
Format/Info                              : Enhanced AC-3
Commercial name                          : Dolby Digital Plus
Codec ID                                 : A_EAC3
Duration                                 : 11 min 10 s
Bit rate mode                            : Constant
Bit rate                                 : 256 kb/s
Channel(s)                               : 6 channels
Channel layout                           : L R C LFE Ls Rs
Sampling rate                            : 48.0 kHz
Frame rate                               : 31.250 FPS (1536 SPF)
Compression mode                         : Lossy
Stream size                              : 20.5 MiB (5%)
Language                                 : English
Service kind                             : Complete Main
Default                                  : Yes
Forced                                   : No

Text #1
ID                                       : 3
Format                                   : UTF-8
Codec ID                                 : S_TEXT/UTF8
Codec ID/Info                            : UTF-8 Plain Text
Duration                                 : 11 min 8 s
Bit rate                                 : 84 b/s
Frame rate                               : 0.317 FPS
Count of elements                        : 212
Stream size                              : 6.87 KiB (0%)
Language                                 : English
Default                                  : No
Forced                                   : No

Text #2
ID                                       : 4
Format                                   : UTF-8
Codec ID                                 : S_TEXT/UTF8
Codec ID/Info                            : UTF-8 Plain Text
Duration                                 : 11 min 8 s
Bit rate                                 : 96 b/s
Frame rate                               : 0.371 FPS
Count of elements                        : 248
Stream size                              : 7.85 KiB (0%)
Title                                    : SDH
Language                                 : English
Default                                  : No
Forced                                   : No



Download
File Container: MKV
Video/Audio Codec: H264 (HIGH) EAC3
Video Resolution: 1920x1080
Please Login to post a comment.
If you don't have any account, please Register.
  • Subscribe my Feeds
  • Facebook

Latest Episodes

Popular Movies and TV Shows

  • Avatar: The Last Airbender
  • Red Right Hand
  • Lovely, Dark, and Deep
  • Digby Dragon
  • Gogglebox
  • Matilda
  • Ghosts
  • The Woman in the Wall
  • Young Sheldon
  • Easy Street
  • Ribblehead
  • The Heartbreak Kid
  • Masters of the Air
  • So Help Me Todd
  • Halo
  • History of Evil
  • Earworm
  • Jenny Slate: Seasoned Professional
  • Hightown
  • Law & Order: Special Victims Unit
  • Law & Order: Organized Crime
  • Mooned
  • Cellphone
  • Tiger Stripes
  • Resident Alien

Recent Comments

Archives