Sign Up   |   Sign In  
S.W.A.T.Fire CountryBlue BloodsFirefoxThe Late GameSimonSpacemanReal Time with Bill MaherThe RookieHaloMegamind vs. The Doom SyndicateLolaMasters of the AirYoung SheldonBMFThe SeedingAlice in TerrorlandDune: Part TwoGhostsElsbethHightownNorthern ComfortThe ChapelCamp Pleasant LakeResident Alien

Announcements

02/05

2024

No

Comments

Kiff S01E55 Fun Uncle Pat 720p HULU WEB-DL DDP5 1 H 264-NTb
[RR/NF/CU]
Size: 97MB mkv H264 (HIGH) / EAC3  HD  1280x720

Kiff
File Information
[img]http://lookpic.com/cdn/i2/t/0205202408293973-1.jpg[/img]
[img]http://lookpic.com/cdn/i2/t/0205202408293973-2.jpg[/img]
[img]http://lookpic.com/cdn/i2/t/0205202408293973-3.jpg[/img]

General
Unique ID                                : 289143336026629403632541423137835367198 (0xD986FB1CBED539A81AE658A2859ABB1E)
Complete name                            : Kiff.S01E55.Fun.Uncle.Pat.720p.HULU.WEB-DL.DDP5.1.H.264-NTb.mkv
Format                                   : Matroska
Format version                           : Version 4
File size                                : 97.4 MiB
Duration                                 : 11 min 10 s
Overall bit rate                         : 1 217 kb/s
Frame rate                               : 23.976 FPS
Encoded date                             : 2024-02-03 15:49:04 UTC
Writing application                      : mkvmerge v82.0 ('I'm The President') 64-bit
Writing library                          : libebml v1.4.5 + libmatroska v1.7.1

Video
ID                                       : 1
Format                                   : AVC
Format/Info                              : Advanced Video Codec
Format profile                           : High@L3.1
Format settings                          : CABAC / 5 Ref Frames
Format settings, CABAC                   : Yes
Format settings, Reference frames        : 5 frames
Codec ID                                 : V_MPEG4/ISO/AVC
Duration                                 : 11 min 10 s
Bit rate                                 : 959 kb/s
Width                                    : 1 280 pixels
Height                                   : 720 pixels
Display aspect ratio                     : 16:9
Frame rate mode                          : Constant
Frame rate                               : 23.976 (24000/1001) FPS
Color space                              : YUV
Chroma subsampling                       : 4:2:0
Bit depth                                : 8 bits
Scan type                                : Progressive
Bits/(Pixel*Frame)                       : 0.043
Stream size                              : 76.7 MiB (79%)
Default                                  : Yes
Forced                                   : No

Audio
ID                                       : 2
Format                                   : E-AC-3
Format/Info                              : Enhanced AC-3
Commercial name                          : Dolby Digital Plus
Codec ID                                 : A_EAC3
Duration                                 : 11 min 10 s
Bit rate mode                            : Constant
Bit rate                                 : 256 kb/s
Channel(s)                               : 6 channels
Channel layout                           : L R C LFE Ls Rs
Sampling rate                            : 48.0 kHz
Frame rate                               : 31.250 FPS (1536 SPF)
Compression mode                         : Lossy
Stream size                              : 20.5 MiB (21%)
Language                                 : English
Service kind                             : Complete Main
Default                                  : Yes
Forced                                   : No

Text #1
ID                                       : 3
Format                                   : UTF-8
Codec ID                                 : S_TEXT/UTF8
Codec ID/Info                            : UTF-8 Plain Text
Duration                                 : 11 min 8 s
Bit rate                                 : 84 b/s
Frame rate                               : 0.317 FPS
Count of elements                        : 212
Stream size                              : 6.87 KiB (0%)
Language                                 : English
Default                                  : No
Forced                                   : No

Text #2
ID                                       : 4
Format                                   : UTF-8
Codec ID                                 : S_TEXT/UTF8
Codec ID/Info                            : UTF-8 Plain Text
Duration                                 : 11 min 8 s
Bit rate                                 : 96 b/s
Frame rate                               : 0.371 FPS
Count of elements                        : 248
Stream size                              : 7.85 KiB (0%)
Title                                    : SDH
Language                                 : English
Default                                  : No
Forced                                   : No



Download
File Container: MKV
Video/Audio Codec: H264 (HIGH) EAC3
Video Resolution: 1280x720
Please Login to post a comment.
If you don't have any account, please Register.
  • Subscribe my Feeds
  • Facebook
Encoding Queue:  x264  x265

Latest Episodes

Popular Movies and TV Shows

  • S.W.A.T.
  • Fire Country
  • Blue Bloods
  • Firefox
  • The Late Game
  • Simon
  • Spaceman
  • Real Time with Bill Maher
  • The Rookie
  • Halo
  • Megamind vs. The Doom Syndicate
  • Lola
  • Masters of the Air
  • Young Sheldon
  • BMF
  • The Seeding
  • Alice in Terrorland
  • Dune: Part Two
  • Ghosts
  • Elsbeth
  • Hightown
  • Northern Comfort
  • The Chapel
  • Camp Pleasant Lake
  • Resident Alien

Recent Comments

  • ruf999:

    hanyou

  • uncabrian: If you can, please upload other seasons of "Eureka" in the same format and size. Much appr...
  • pr4455:

    hi this movie has no audio just commentry

  • asalan:

    please reupload.

  • asalan:

    reupload please.

  • newuser:

    need English Sub that Sync

  • Bud:

    Can we get a re-up on the clicknupload link please? Current link is dead.

Archives