Sign Up   |   Sign In  
Chicago FireMoonedAbbott ElementaryWild CardsA Bullet for JoeyNight SwimAllegianceStar Wars: The Bad BatchThe ConnersSlaughterhouse Slumber PartyA Couch in New YorkMonster RunConstellationThe RookieThe Good DoctorPink Floyd: The Dark Side of the Moon (50th Anniversary Box Set)RuthlessLouis C.K.: Back to the GardenWill TrentQuantum LeapFBIThe Mental StateMean GirlsThe Lovely BonesMonsieur Spade

Announcements

02/05

2024

No

Comments

Kiff S01E56 Kiff Escape 1080p HULU WEB-DL DDP5 1 H 264-NTb
[RR/NF/CU]
Size: 405MB mkv H264 (HIGH) / EAC3  HD  1920x1080

Kiff
File Information
[img]http://lookpic.com/cdn/i2/t/0205202408290172-1.jpg[/img]
[img]http://lookpic.com/cdn/i2/t/0205202408290172-2.jpg[/img]
[img]http://lookpic.com/cdn/i2/t/0205202408290172-3.jpg[/img]

General
Unique ID                                : 177446471548731152452593591210971185310 (0x857EF282C98CD50373DB9B228E4B409E)
Complete name                            : Kiff.S01E56.Kiff.Escape.1080p.HULU.WEB-DL.DDP5.1.H.264-NTb.mkv
Format                                   : Matroska
Format version                           : Version 4
File size                                : 405 MiB
Duration                                 : 11 min 16 s
Overall bit rate                         : 5 027 kb/s
Frame rate                               : 23.976 FPS
Encoded date                             : 2024-02-03 15:49:05 UTC
Writing application                      : mkvmerge v82.0 ('I'm The President') 64-bit
Writing library                          : libebml v1.4.5 + libmatroska v1.7.1

Video
ID                                       : 1
Format                                   : AVC
Format/Info                              : Advanced Video Codec
Format profile                           : High@L4
Format settings                          : CABAC / 4 Ref Frames
Format settings, CABAC                   : Yes
Format settings, Reference frames        : 4 frames
Codec ID                                 : V_MPEG4/ISO/AVC
Duration                                 : 11 min 16 s
Bit rate                                 : 4 769 kb/s
Width                                    : 1 920 pixels
Height                                   : 1 080 pixels
Display aspect ratio                     : 16:9
Frame rate mode                          : Constant
Frame rate                               : 23.976 (24000/1001) FPS
Color space                              : YUV
Chroma subsampling                       : 4:2:0
Bit depth                                : 8 bits
Scan type                                : Progressive
Bits/(Pixel*Frame)                       : 0.096
Stream size                              : 385 MiB (95%)
Default                                  : Yes
Forced                                   : No

Audio
ID                                       : 2
Format                                   : E-AC-3
Format/Info                              : Enhanced AC-3
Commercial name                          : Dolby Digital Plus
Codec ID                                 : A_EAC3
Duration                                 : 11 min 16 s
Bit rate mode                            : Constant
Bit rate                                 : 256 kb/s
Channel(s)                               : 6 channels
Channel layout                           : L R C LFE Ls Rs
Sampling rate                            : 48.0 kHz
Frame rate                               : 31.250 FPS (1536 SPF)
Compression mode                         : Lossy
Delay relative to video                  : 14 ms
Stream size                              : 20.6 MiB (5%)
Language                                 : English
Service kind                             : Complete Main
Default                                  : Yes
Forced                                   : No

Text #1
ID                                       : 3
Format                                   : UTF-8
Codec ID                                 : S_TEXT/UTF8
Codec ID/Info                            : UTF-8 Plain Text
Duration                                 : 11 min 12 s
Bit rate                                 : 62 b/s
Frame rate                               : 0.260 FPS
Count of elements                        : 175
Stream size                              : 5.14 KiB (0%)
Language                                 : English
Default                                  : No
Forced                                   : No

Text #2
ID                                       : 4
Format                                   : UTF-8
Codec ID                                 : S_TEXT/UTF8
Codec ID/Info                            : UTF-8 Plain Text
Duration                                 : 11 min 12 s
Bit rate                                 : 77 b/s
Frame rate                               : 0.341 FPS
Count of elements                        : 229
Stream size                              : 6.40 KiB (0%)
Title                                    : SDH
Language                                 : English
Default                                  : No
Forced                                   : No



Download
File Container: MKV
Video/Audio Codec: H264 (HIGH) EAC3
Video Resolution: 1920x1080
Please Login to post a comment.
If you don't have any account, please Register.
  • Subscribe my Feeds
  • Facebook

Latest Episodes

Popular Movies and TV Shows

  • Chicago Fire
  • Mooned
  • Abbott Elementary
  • Wild Cards
  • A Bullet for Joey
  • Night Swim
  • Allegiance
  • Star Wars: The Bad Batch
  • The Conners
  • Slaughterhouse Slumber Party
  • A Couch in New York
  • Monster Run
  • Constellation
  • The Rookie
  • The Good Doctor
  • Pink Floyd: The Dark Side of the Moon (50th Anniversary Box Set)
  • Ruthless
  • Louis C.K.: Back to the Garden
  • Will Trent
  • Quantum Leap
  • FBI
  • The Mental State
  • Mean Girls
  • The Lovely Bones
  • Monsieur Spade

Recent Comments

  • tbbttbbt:

    All links are dead, NF is dead too

  • mentalityx:

    THanks for this.

  • KubrickFan:

    Any possibility of a fresh link for this? x264 preferably

  • bitz:

    reload please

  • stefan43: plaese reup on clicknupload.club
  • mentalityx:

    Thx for this one.

  • wxe09104:

    please add Monsieur Spade episode 6

  • ninjamouse28: can someone update this with the actual web-dl? it says it is but still has the logo, & some of ...
  • kellym2:

    Could you please put TV series "STRIFE" eps 1-8 on in 264 format. Much appreciated

  • bitz:

    travelers... wrong series?

Archives