Sign Up   |   Sign In  
Red Right HandEasy StreetTurtles Can FlyResident AlienUndead UnluckGeniusYoung SheldonAvatar: The Last AirbenderSo Help Me ToddLovely, Dark, and DeepThe Heartbreak KidHistory of EvilMasters of the AirGhostsLaw & Order Toronto: Criminal IntentEarwormJenny Slate: Seasoned ProfessionalTiger StripesHaloHightownLaw & Order: Special Victims UnitCellphoneMoonedThe Last AirbenderConstellation

Announcements

02/05

2024

No

Comments

Kiff S01E56 Kiff Escape 720p HULU WEB-DL DDP5 1 H 264-NTb
[RR/NF/CU]
Size: 95MB mkv H264 (HIGH) / EAC3  HD  1280x720

Kiff
File Information
[img]http://lookpic.com/cdn/i2/t/0205202408294415-1.jpg[/img]
[img]http://lookpic.com/cdn/i2/t/0205202408294415-2.jpg[/img]
[img]http://lookpic.com/cdn/i2/t/0205202408294415-3.jpg[/img]

General
Unique ID                                : 199195389328537480110653600948456042470 (0x95DBA2F243D677019C75124E178CAFE6)
Complete name                            : Kiff.S01E56.Kiff.Escape.720p.HULU.WEB-DL.DDP5.1.H.264-NTb.mkv
Format                                   : Matroska
Format version                           : Version 4
File size                                : 95.1 MiB
Duration                                 : 11 min 16 s
Overall bit rate                         : 1 179 kb/s
Frame rate                               : 23.976 FPS
Encoded date                             : 2024-02-03 15:49:07 UTC
Writing application                      : mkvmerge v82.0 ('I'm The President') 64-bit
Writing library                          : libebml v1.4.5 + libmatroska v1.7.1

Video
ID                                       : 1
Format                                   : AVC
Format/Info                              : Advanced Video Codec
Format profile                           : High@L3.1
Format settings                          : CABAC / 5 Ref Frames
Format settings, CABAC                   : Yes
Format settings, Reference frames        : 5 frames
Codec ID                                 : V_MPEG4/ISO/AVC
Duration                                 : 11 min 16 s
Bit rate                                 : 921 kb/s
Width                                    : 1 280 pixels
Height                                   : 720 pixels
Display aspect ratio                     : 16:9
Frame rate mode                          : Constant
Frame rate                               : 23.976 (24000/1001) FPS
Color space                              : YUV
Chroma subsampling                       : 4:2:0
Bit depth                                : 8 bits
Scan type                                : Progressive
Bits/(Pixel*Frame)                       : 0.042
Stream size                              : 74.3 MiB (78%)
Default                                  : Yes
Forced                                   : No

Audio
ID                                       : 2
Format                                   : E-AC-3
Format/Info                              : Enhanced AC-3
Commercial name                          : Dolby Digital Plus
Codec ID                                 : A_EAC3
Duration                                 : 11 min 16 s
Bit rate mode                            : Constant
Bit rate                                 : 256 kb/s
Channel(s)                               : 6 channels
Channel layout                           : L R C LFE Ls Rs
Sampling rate                            : 48.0 kHz
Frame rate                               : 31.250 FPS (1536 SPF)
Compression mode                         : Lossy
Delay relative to video                  : 14 ms
Stream size                              : 20.6 MiB (22%)
Language                                 : English
Service kind                             : Complete Main
Default                                  : Yes
Forced                                   : No

Text #1
ID                                       : 3
Format                                   : UTF-8
Codec ID                                 : S_TEXT/UTF8
Codec ID/Info                            : UTF-8 Plain Text
Duration                                 : 11 min 12 s
Bit rate                                 : 62 b/s
Frame rate                               : 0.260 FPS
Count of elements                        : 175
Stream size                              : 5.14 KiB (0%)
Language                                 : English
Default                                  : No
Forced                                   : No

Text #2
ID                                       : 4
Format                                   : UTF-8
Codec ID                                 : S_TEXT/UTF8
Codec ID/Info                            : UTF-8 Plain Text
Duration                                 : 11 min 12 s
Bit rate                                 : 77 b/s
Frame rate                               : 0.341 FPS
Count of elements                        : 229
Stream size                              : 6.40 KiB (0%)
Title                                    : SDH
Language                                 : English
Default                                  : No
Forced                                   : No



Download
File Container: MKV
Video/Audio Codec: H264 (HIGH) EAC3
Video Resolution: 1280x720
Please Login to post a comment.
If you don't have any account, please Register.
  • Subscribe my Feeds
  • Facebook

Latest Episodes

Popular Movies and TV Shows

  • Red Right Hand
  • Easy Street
  • Turtles Can Fly
  • Resident Alien
  • Undead Unluck
  • Genius
  • Young Sheldon
  • Avatar: The Last Airbender
  • So Help Me Todd
  • Lovely, Dark, and Deep
  • The Heartbreak Kid
  • History of Evil
  • Masters of the Air
  • Ghosts
  • Law & Order Toronto: Criminal Intent
  • Earworm
  • Jenny Slate: Seasoned Professional
  • Tiger Stripes
  • Halo
  • Hightown
  • Law & Order: Special Victims Unit
  • Cellphone
  • Mooned
  • The Last Airbender
  • Constellation

Recent Comments

Archives