Sign Up   |   Sign In  

Announcements

Want to support us?
Buy a RapidRAR account from our resellers:
Buy or renew a NitroFlare account via THIS LINK

04/18

2017

1

Comments

King and Maxwell S01 BDRip x264-FGT
[RR/NF/UL]
Size: 3.6GB mp4 H264 (HIGH) (AVC1) / AAC (LC) (MP4A) 720x400 TV Pack

King & Maxwell
Click on the image to see full size
[RR/NF/UL] King and Maxwell S01 BDRip x264-FGT (3.6GB) - Snapshot 1[RR/NF/UL] King and Maxwell S01 BDRip x264-FGT (3.6GB) - Snapshot 2
File Information
[URL=http://imagecurl.com/viewer.php?file=19458921247358262636.png][IMG]http://imagecurl.com/images/19458921247358262636_thumb.png[/IMG][/URL]
[URL=http://imagecurl.com/viewer.php?file=57909882758532009714.png][IMG]http://imagecurl.com/images/57909882758532009714_thumb.png[/IMG][/URL]
[URL=http://imagecurl.com/viewer.php?file=96401541439090042538.png][IMG]http://imagecurl.com/images/96401541439090042538_thumb.png[/IMG][/URL]
[URL=http://imagecurl.com/viewer.php?file=80949780185669871604.png][IMG]http://imagecurl.com/images/80949780185669871604_thumb.png[/IMG][/URL]
[URL=http://imagecurl.com/viewer.php?file=97555965614631243495.png][IMG]http://imagecurl.com/images/97555965614631243495_thumb.png[/IMG][/URL]
[URL=http://imagecurl.com/viewer.php?file=46868274104178118342.png][IMG]http://imagecurl.com/images/46868274104178118342_thumb.png[/IMG][/URL]



[mediainfo]
Video
ID                                       : 1
Format                                   : AVC
Format/Info                              : Advanced Video Codec
Format profile                           : [email protected]
Format settings, CABAC                   : Yes
Format settings, ReFrames                : 5 frames
Codec ID                                 : avc1
Codec ID/Info                            : Advanced Video Coding
Duration                                 : 47mn 18s
Bit rate                                 : 1 100 Kbps
Width                                    : 720 pixels
Height                                   : 400 pixels
Display aspect ratio                     : 16:9
Frame rate mode                          : Constant
Frame rate                               : 23.976 (24000/1001) fps
Color space                              : YUV
Chroma subsampling                       : 4:2:0
Bit depth                                : 8 bits
Scan type                                : Progressive
Bits/(Pixel*Frame)                       : 0.159
Stream size                              : 374 MiB (89%)
Writing library                          : x264 core 148 r2748 97eaef2
 Encoding settings                        : cabac=1 / ref=5 / deblock=1:-1:-1 / analyse=0x3:0x113 / me=umh / subme=9 / psy=1 / psy_rd=1.00:0.15 / mixed_ref=1 / me_range=16 / chroma_me=1 / trellis=2 / 8x8dct=1 / cqm=0 / deadz / fast pskip=1 / chroma_qp_offset=-3 / threads=24 / lookahead_threads=2 / sliced_threads=0 / nr=0 / decimate=1 / interlaced=0 / bluray_compat=0 / c / bframes=3 / b_pyramid=2 / b_adapt=1 / b_bias=0 / direct=3 / weightb=1 / open_gop=0 / weightp=2 / keyint=250 / keyint_min=23 / scenecut=40 / intra_refresh=0 / rc_lookahead=50 / rc=abr / mbtree=1 / bitrate=1100 / ratetol=1.0 / qcomp=0.60 / qpmin=0 / qpmax=69 / qpstep=4 / ip_ratio=1.40 / aq=1:1.00

Audio
ID                                       : 2
Format                                   : AAC
Format/Info                              : Advanced Audio Codec
Format profile                           : LC
Codec ID                                 : 40
Duration                                 : 47mn 17s
Bit rate mode                            : Constant
Bit rate                                 : 128 Kbps
Channel(s)                               : 2 channels
Channel positions                        : Front: L R
Sampling rate                            : 48.0 KHz
Frame rate                               : 46.875 fps (1024 spf)
Compression mode                         : Lossy
Stream size                              : 43.3 MiB (10%)
Language                                 : English
Default                                  : Yes
Alternate group                          : 1



[/mediainfo]
Download
File Container: MP4
Video/Audio Codec: H264 (HIGH) (AVC1) AAC (LC) (MP4A)
Video Resolution: 720x400
 
 
 

Show us some love

1 Response to "[RR/NF/UL] King and Maxwell S01 BDRip x264-FGT (3.6GB)"
04/19/17
18:16:37
marcus59

@admin
RR links are 'watch' rather than 'download' type.

Leave a Comment

  • (never displayed)
  •  
        Members don't see captchas. Sign Up / Sign In
  • Notify me via email when someone responds.
  • Subscribe my Feeds
  • Facebook

Latest Episodes

Popular Movies and TV Shows

  • The Orville
  • Casualty
  • The X Factor
  • Sniper: Ultimate Kill
  • Innocent Blood
  • The ABCs of Death
  • Zoo
  • Mike Judge Presents: Tales from the Tour Bus
  • Room 104
  • Uncaged
  • The Book of Henry
  • #Stuck
  • Subterranea
  • Mr. Mercedes
  • Gotham
  • Chris Brown: Welcome to My Life
  • Killing Gunther
  • Real Time with Bill Maher
  • I am Frankie
  • South Park
  • Lone Wolves
  • Ghosted
  • The Little Hours
  • Pirates of the Caribbean: Dead Men Tell No Tales
  • The Sinner

Recent Comments