Sign Up   |   Sign In  
Dune: Part TwoThe Great NorthGrimsburgBravo, tata!The ChannelTo Die ForTrinket BoxGuardians of the Galaxy Vol. 3Beacon 23Cold JusticeThis TownThe Bellboy and the PlaygirlsShogunParishSaturday Night LiveThe Taste of ThingsLegend of the Lost LocketFantastic Four: Rise of the Silver SurferFalloutGrey's AnatomyImmoral WomenS.W.A.T.WillowScrambledFBI

Announcements

02/19

2024

1

Comments

Krapopolis S01E13 Contagion 720p HULU WEB-DL DDP5 1 H 264-NTb
[RR/NF/CU]
Size: 267MB mkv H264 (HIGH) / EAC3  HD  1280x720

Krapopolis
File Information
[img]http://lookpic.com/cdn/i2/t/0219202410382504-1.jpg[/img]
[img]http://lookpic.com/cdn/i2/t/0219202410382504-2.jpg[/img]
[img]http://lookpic.com/cdn/i2/t/0219202410382504-3.jpg[/img]

General
Unique ID                                : 112708133379362041555479271558544162377 (0x54CACC01F98109E4A8D03EAA6564FE49)
Complete name                            : Krapopolis.S01E13.Contagion.720p.HULU.WEB-DL.DDP5.1.H.264-NTb.mkv
Format                                   : Matroska
Format version                           : Version 4
File size                                : 267 MiB
Duration                                 : 21 min 38 s
Overall bit rate                         : 1 728 kb/s
Frame rate                               : 23.976 FPS
Writing application                      : mkvmerge v80.0 ('Roundabout') 64-bit
Writing library                          : libebml v1.4.4 + libmatroska v1.7.1

Video
ID                                       : 1
Format                                   : AVC
Format/Info                              : Advanced Video Codec
Format profile                           : High@L3.1
Format settings                          : CABAC / 5 Ref Frames
Format settings, CABAC                   : Yes
Format settings, Reference frames        : 5 frames
Codec ID                                 : V_MPEG4/ISO/AVC
Duration                                 : 21 min 38 s
Bit rate                                 : 1 470 kb/s
Width                                    : 1 280 pixels
Height                                   : 720 pixels
Display aspect ratio                     : 16:9
Frame rate mode                          : Constant
Frame rate                               : 23.976 (24000/1001) FPS
Color space                              : YUV
Chroma subsampling                       : 4:2:0
Bit depth                                : 8 bits
Scan type                                : Progressive
Bits/(Pixel*Frame)                       : 0.067
Stream size                              : 227 MiB (85%)
Default                                  : Yes
Forced                                   : No

Audio
ID                                       : 2
Format                                   : E-AC-3
Format/Info                              : Enhanced AC-3
Commercial name                          : Dolby Digital Plus
Codec ID                                 : A_EAC3
Duration                                 : 21 min 38 s
Bit rate mode                            : Constant
Bit rate                                 : 256 kb/s
Channel(s)                               : 6 channels
Channel layout                           : L R C LFE Ls Rs
Sampling rate                            : 48.0 kHz
Frame rate                               : 31.250 FPS (1536 SPF)
Compression mode                         : Lossy
Stream size                              : 39.6 MiB (15%)
Language                                 : English
Service kind                             : Complete Main
Default                                  : Yes
Forced                                   : No

Text #1
ID                                       : 3
Format                                   : UTF-8
Codec ID                                 : S_TEXT/UTF8
Codec ID/Info                            : UTF-8 Plain Text
Duration                                 : 21 min 35 s
Bit rate                                 : 116 b/s
Frame rate                               : 0.454 FPS
Count of elements                        : 588
Stream size                              : 18.3 KiB (0%)
Language                                 : English
Default                                  : No
Forced                                   : No

Text #2
ID                                       : 4
Format                                   : UTF-8
Codec ID                                 : S_TEXT/UTF8
Codec ID/Info                            : UTF-8 Plain Text
Duration                                 : 21 min 35 s
Bit rate                                 : 118 b/s
Frame rate                               : 0.476 FPS
Count of elements                        : 616
Stream size                              : 18.8 KiB (0%)
Title                                    : SDH
Language                                 : English
Default                                  : No
Forced                                   : No

Menu
00:00:00.000                             : en:Chapter 1
00:06:08.004                             : en:Chapter 2
00:14:27.001                             : en:Chapter 3
00:20:33.018                             : en:Chapter 4



Download
File Container: MKV
Video/Audio Codec: H264 (HIGH) EAC3
Video Resolution: 1280x720

1 Response to "[RR/NF/CU] Krapopolis S01E13 Contagion 720p HULU WEB-DL DDP5 1 H 264-NTb (267MB)"
02/19/24
22:30:04
ReadyPlayerOne

Thank you!

Please Login to post a comment.
If you don't have any account, please Register.
  • Subscribe my Feeds
  • Facebook
Encoding Queue:  x264  x265

Latest Episodes

Popular Movies and TV Shows

  • Dune: Part Two
  • The Great North
  • Grimsburg
  • Bravo, tata!
  • The Channel
  • To Die For
  • Trinket Box
  • Guardians of the Galaxy Vol. 3
  • Beacon 23
  • Cold Justice
  • This Town
  • The Bellboy and the Playgirls
  • Shogun
  • Parish
  • Saturday Night Live
  • The Taste of Things
  • Legend of the Lost Locket
  • Fantastic Four: Rise of the Silver Surfer
  • Fallout
  • Grey's Anatomy
  • Immoral Women
  • S.W.A.T.
  • Willow
  • Scrambled
  • FBI

Recent Comments

  • mentalityx:

    Rad bloke

  • DownloadHostInspector:

    so far these RMTeam uploads always have a working link. DownloadHostInspector approved!

  • DownloadHostInspector:

    ah yes, this upload has a host that works. clicknupload. DownloadHostInspector approved!

  • DownloadHostInspector: Why are all the download hosts trash? none of them let you download it
  • Qua4ratic:

    clicknupload link plz

  • ppoo:

    Please, can you add "Real Time with Bill Maher S22E11" ??

  • theahtisham:

    Kindly upload Ep. 3 and 4 as well.

  • Kudzu: Update on sound issue, File's codec info says stereo but is only a the left channel If I switch i...
  • Admin:

    kang
    Getting error while encoding, sorry

Archives