Sign Up   |   Sign In  
BlueyCinderellaAppleseedWonderful Precure!Clerks IIIVeepA Dangerous AffairSmoochThe Spiderwick ChroniclesPredator v PreyRebel Moon - Part Two: The ScargiverHigh HopesS.W.A.T.AbigailReal Time with Bill MaherThe Tin StarLate Night with the DevilBeyond ParadiseGhostbusters: Frozen EmpireStar Trek: DiscoverySugarYoung SheldonWhite BirdOnce Upon a Time in AmericaA Gentleman in Moscow

Announcements

03/01

2024

No

Comments

Late Bloomer S01E01 Nudes 720p AMZN WEB-DL DDP5 1 H 264-NTb
[RR/NF/CU]
Size: 559MB mkv H264 (HIGH) / EAC3  HD  1280x720

Late Bloomer
  • Late Bloomer (2024-)
  • Genre: Comedy | Drama
  • Country: United States, Canada
  • Original Language: English
  • Original Network: Crave
  • Storyline: Inspired by Raina's life as a Punjabi Sikh millennial and online celebrity, the show follows burgeoning content creator Jasmeet Dutta as he tries to balance his ambitions for success with his commitment to family, community and cu...
File Information
[img]http://lookpic.com/cdn/i2/t/0301202419502930-1.jpg[/img]
[img]http://lookpic.com/cdn/i2/t/0301202419502930-2.jpg[/img]
[img]http://lookpic.com/cdn/i2/t/0301202419502930-3.jpg[/img]

General
Unique ID                                : 109465040648071171838693869269939339063 (0x525A3330E41D95E013BBF55548833F37)
Complete name                            : Late.Bloomer.S01E01.Nudes.720p.AMZN.WEB-DL.DDP5.1.H.264-NTb.mkv
Format                                   : Matroska
Format version                           : Version 4
File size                                : 559 MiB
Duration                                 : 24 min 33 s
Overall bit rate                         : 3 186 kb/s
Frame rate                               : 23.976 FPS
Writing application                      : mkvmerge v81.0 ('Milliontown') 64-bit
Writing library                          : libebml v1.4.4 + libmatroska v1.7.1

Video
ID                                       : 1
Format                                   : AVC
Format/Info                              : Advanced Video Codec
Format profile                           : High@L3.1
Format settings                          : CABAC / 4 Ref Frames
Format settings, CABAC                   : Yes
Format settings, Reference frames        : 4 frames
Codec ID                                 : V_MPEG4/ISO/AVC
Duration                                 : 24 min 33 s
Bit rate mode                            : Constant
Bit rate                                 : 2 544 kb/s
Nominal bit rate                         : 6 000 kb/s
Width                                    : 1 280 pixels
Height                                   : 720 pixels
Display aspect ratio                     : 16:9
Frame rate mode                          : Constant
Frame rate                               : 23.976 (24000/1001) FPS
Color space                              : YUV
Chroma subsampling                       : 4:2:0
Bit depth                                : 8 bits
Scan type                                : Progressive
Bits/(Pixel*Frame)                       : 0.115
Stream size                              : 447 MiB (80%)
Default                                  : Yes
Forced                                   : No
Color range                              : Limited
Color primaries                          : BT.709
Transfer characteristics                 : BT.709
Matrix coefficients                      : BT.709

Audio
ID                                       : 2
Format                                   : E-AC-3
Format/Info                              : Enhanced AC-3
Commercial name                          : Dolby Digital Plus
Codec ID                                 : A_EAC3
Duration                                 : 24 min 32 s
Bit rate mode                            : Constant
Bit rate                                 : 640 kb/s
Channel(s)                               : 6 channels
Channel layout                           : L R C LFE Ls Rs
Sampling rate                            : 48.0 kHz
Frame rate                               : 31.250 FPS (1536 SPF)
Compression mode                         : Lossy
Delay relative to video                  : 16 ms
Stream size                              : 112 MiB (20%)
Language                                 : English (US)
Service kind                             : Complete Main
Default                                  : Yes
Forced                                   : No

Text #1
ID                                       : 3
Format                                   : UTF-8
Codec ID                                 : S_TEXT/UTF8
Codec ID/Info                            : UTF-8 Plain Text
Duration                                 : 23 min 56 s
Bit rate                                 : 83 b/s
Frame rate                               : 0.327 FPS
Count of elements                        : 470
Stream size                              : 14.6 KiB (0%)
Language                                 : English (US)
Default                                  : No
Forced                                   : No

Text #2
ID                                       : 4
Format                                   : UTF-8
Codec ID                                 : S_TEXT/UTF8
Codec ID/Info                            : UTF-8 Plain Text
Duration                                 : 24 min 11 s
Bit rate                                 : 87 b/s
Frame rate                               : 0.344 FPS
Count of elements                        : 500
Stream size                              : 15.5 KiB (0%)
Title                                    : SDH
Language                                 : English (US)
Default                                  : No
Forced                                   : No



Download
File Container: MKV
Video/Audio Codec: H264 (HIGH) EAC3
Video Resolution: 1280x720
Please Login to post a comment.
If you don't have any account, please Register.
  • Subscribe my Feeds
  • Facebook
Encoding Queue:  x264  x265

Latest Episodes

Popular Movies and TV Shows

  • Bluey
  • Cinderella
  • Appleseed
  • Wonderful Precure!
  • Clerks III
  • Veep
  • A Dangerous Affair
  • Smooch
  • The Spiderwick Chronicles
  • Predator v Prey
  • Rebel Moon - Part Two: The Scargiver
  • High Hopes
  • S.W.A.T.
  • Abigail
  • Real Time with Bill Maher
  • The Tin Star
  • Late Night with the Devil
  • Beyond Paradise
  • Ghostbusters: Frozen Empire
  • Star Trek: Discovery
  • Sugar
  • Young Sheldon
  • White Bird
  • Once Upon a Time in America
  • A Gentleman in Moscow

Recent Comments

  • Cinque_Persson: Why not skip the old news and hearsay and be constructive: what's the best alternatives for Win, Mac...
  • fallensammer:

    the file on click upload is 119mg onnly and is corrupted

  • ronkanon:

    Could you please provide a ClicknUpload link?

  • ronkanon:

    Could you please provide a ClicknUpload link?

  • waanaabe: Could you Kindly Upload the SOUTH PARK seasons to CU as well? Would be really appreciated
  • gusmac67:

    Clickupload link is corrupt. File bad at 38 min

  • timt:

    Narrated Movie!

  • Richardexamp: I recently stumbled upon https://asiancasinos.org/ and I obligated to symbolize, it has with dispatc...
  • 23d1:

    ClicknUpload link is missing

  • yopo:

    NitroFlare's link is missing !!!

  • yopo:

    NitroFlare's link is missing !!!

  • yopo:

    NitroFlare's link is missing !!!
    Clicknupload's link is missing !!!

  • yopo:

    NitroFlare's link is missing !!!

  • dragonnightfire: I have tried contacting Rapid Rar to find out what is going on with the server maintainance. I am no...
  • dragonnightfire:

    RR links dead on 5 eps

  • Draveren: hi. can we solve this "server under maintenance" stuff, already? if back in the day i'd ke...
  • Majnon: The links are dead. Please re-upload
  • timt:

    Anyone have the movie "Shoot" (1976) to post?

  • Nightshade: Hey, it appears at least the RMTeam separate episodes and ION's packs for the first two seasons of t...
  • Bigfishguy:

    There's no free option to download this video. Can someone please upload it to clicknupload?

Archives