Sign Up   |   Sign In  
Dawn of the Planet of the ApesDemon Slayer: Kimetsu no YaibaRise of the Planet of the ApesPlanet of the ApesThe ChiMasterChef AustraliaSaturday Night LiveExhumaSecrets and LiesSeth Rogen's Hilarity for CharityTwisterCanada's Ultimate ChallengeBeacon 23Interview with the VampireS.W.A.T.Phil Tippett: Mad Dreams and MonstersChallengersEverything PuppiesYoung SheldonStar Trek: DiscoveryBlue BloodsGodzilla x Kong: The New EmpireFletchFletch LivesSugar

Announcements

04/12

2024

1

Comments

Law and Order Organized Crime S04E09 Semper Fi REPACK 1080p AMZN WEB-DL DDP5 1 H 264-NTb
[RR/NF]
Size: 2.9GB mkv H264 (HIGH) / EAC3  HD  1920x1080

Law & Order: Organized Crime
File Information
[img]http://lookpic.com/cdn/i2/t/0412202420201816-1.jpg[/img]
[img]http://lookpic.com/cdn/i2/t/0412202420201816-2.jpg[/img]
[img]http://lookpic.com/cdn/i2/t/0412202420201816-3.jpg[/img]

General
Unique ID                                : 118074462811270028545371742610863627977 (0x58D45079DE58074144040AA157CB1EC9)
Complete name                            : Law and Order Organized Crime S04E09 Semper Fi REPACK 1080p AMZN WEB-DL DDP5 1 H 264-NTb.mkv
Format                                   : Matroska
Format version                           : Version 4
File size                                : 2.89 GiB
Duration                                 : 42 min 23 s
Overall bit rate                         : 9 765 kb/s
Frame rate                               : 23.976 FPS
Writing application                      : mkvmerge v81.0 ('Milliontown') 64-bit
Writing library                          : libebml v1.4.4 + libmatroska v1.7.1

Video
ID                                       : 1
Format                                   : AVC
Format/Info                              : Advanced Video Codec
Format profile                           : High@L4
Format settings                          : CABAC / 4 Ref Frames
Format settings, CABAC                   : Yes
Format settings, Reference frames        : 4 frames
Codec ID                                 : V_MPEG4/ISO/AVC
Duration                                 : 42 min 23 s
Bit rate mode                            : Constant
Bit rate                                 : 9 123 kb/s
Nominal bit rate                         : 10 000 kb/s
Width                                    : 1 920 pixels
Height                                   : 1 080 pixels
Display aspect ratio                     : 16:9
Frame rate mode                          : Constant
Frame rate                               : 23.976 (24000/1001) FPS
Color space                              : YUV
Chroma subsampling                       : 4:2:0
Bit depth                                : 8 bits
Scan type                                : Progressive
Bits/(Pixel*Frame)                       : 0.184
Stream size                              : 2.70 GiB (93%)
Default                                  : Yes
Forced                                   : No
Color range                              : Limited
Color primaries                          : BT.709
Transfer characteristics                 : BT.709
Matrix coefficients                      : BT.709

Audio
ID                                       : 2
Format                                   : E-AC-3
Format/Info                              : Enhanced AC-3
Commercial name                          : Dolby Digital Plus
Codec ID                                 : A_EAC3
Duration                                 : 42 min 23 s
Bit rate mode                            : Constant
Bit rate                                 : 640 kb/s
Channel(s)                               : 6 channels
Channel layout                           : L R C LFE Ls Rs
Sampling rate                            : 48.0 kHz
Frame rate                               : 31.250 FPS (1536 SPF)
Compression mode                         : Lossy
Stream size                              : 194 MiB (7%)
Language                                 : English (US)
Service kind                             : Complete Main
Default                                  : Yes
Forced                                   : No

Text #1
ID                                       : 3
Format                                   : UTF-8
Codec ID                                 : S_TEXT/UTF8
Codec ID/Info                            : UTF-8 Plain Text
Duration                                 : 40 min 59 s
Bit rate                                 : 81 b/s
Frame rate                               : 0.355 FPS
Count of elements                        : 874
Stream size                              : 24.5 KiB (0%)
Language                                 : English (US)
Default                                  : No
Forced                                   : No

Text #2
ID                                       : 4
Format                                   : UTF-8
Codec ID                                 : S_TEXT/UTF8
Codec ID/Info                            : UTF-8 Plain Text
Duration                                 : 42 min 14 s
Bit rate                                 : 81 b/s
Frame rate                               : 0.368 FPS
Count of elements                        : 932
Stream size                              : 25.3 KiB (0%)
Title                                    : SDH
Language                                 : English (US)
Default                                  : No
Forced                                   : No



Download
File Container: MKV
Video/Audio Codec: H264 (HIGH) EAC3
Video Resolution: 1920x1080

1 Response to "[RR/NF] Law and Order Organized Crime S04E09 Semper Fi REPACK 1080p AMZN WEB-DL DDP5 1 H 264-NTb (2.9GB)"
04/12/24
22:20:16
ReadyPlayerOne

Thank you!

Please Login to post a comment.
If you don't have any account, please Register.
  • Subscribe my Feeds
  • Facebook
Encoding Queue:  x264  x265

Latest Episodes

Popular Movies and TV Shows

  • Dawn of the Planet of the Apes
  • Demon Slayer: Kimetsu no Yaiba
  • Rise of the Planet of the Apes
  • Planet of the Apes
  • The Chi
  • MasterChef Australia
  • Saturday Night Live
  • Exhuma
  • Secrets and Lies
  • Seth Rogen's Hilarity for Charity
  • Twister
  • Canada's Ultimate Challenge
  • Beacon 23
  • Interview with the Vampire
  • S.W.A.T.
  • Phil Tippett: Mad Dreams and Monsters
  • Challengers
  • Everything Puppies
  • Young Sheldon
  • Star Trek: Discovery
  • Blue Bloods
  • Godzilla x Kong: The New Empire
  • Fletch
  • Fletch Lives
  • Sugar

Recent Comments

  • 23d1:

    not episode 4 it is episode 3

  • 23d1:

    not episode 4 it is episode 3

  • 23d1:

    not episode 4 it is episode 3

  • 23d1:

    not episode 4 it is episode 3

  • aaroz88:

    Trimas!!

  • mptoo: I don't often ask this, infact this would be the first time, but I don't suppose there is any chance...
  • Cinque_Persson:

    btw:
    quote /quote
    is broken

  • gabrielsyme:

    Sorry but where is the clicknupload link?

  • mike1204:

    Is this episode doomed??? The RMX avi version is only 12 minutes long!!!

  • waanaabe:

    Could PUSHING DAISES kindly be upoaded to CU? THANKS!

  • mentalityx:

    Thx bloke.

Archives