Sign Up   |   Sign In  
S.W.A.T.Fire CountryBlue BloodsFirefoxThe Late GameSimonSpacemanReal Time with Bill MaherThe RookieYoung SheldonMegamind vs. The Doom SyndicateLolaMasters of the AirHaloBMFThe SeedingAlice in TerrorlandDune: Part TwoGhostsElsbethHightownNorthern ComfortThe ChapelCamp Pleasant LakeResident Alien

Announcements

02/11

2024

1

Comments

Law and Order S23E04 Unintended Consequences 1080p AMZN WEB-DL DDP5 1 H 264-NTb
[RR/NF]
Size: 2.9GB mkv H264 (HIGH) / EAC3  HD  1920x1080

Law & Order
File Information
[img]http://lookpic.com/cdn/i2/t/0211202409081936-1.jpg[/img]
[img]http://lookpic.com/cdn/i2/t/0211202409081936-2.jpg[/img]
[img]http://lookpic.com/cdn/i2/t/0211202409081936-3.jpg[/img]

General
Unique ID                                : 258689179891873139694522479151900503901 (0xC29DB949ED17FE41A036B6A7268BAF5D)
Complete name                            : Law.and.Order.S23E04.Unintended.Consequences.1080p.AMZN.WEB-DL.DDP5.1.H.264-NTb.mkv
Format                                   : Matroska
Format version                           : Version 4
File size                                : 2.87 GiB
Duration                                 : 41 min 58 s
Overall bit rate                         : 9 792 kb/s
Frame rate                               : 23.976 FPS
Writing application                      : mkvmerge v81.0 ('Milliontown') 64-bit
Writing library                          : libebml v1.4.4 + libmatroska v1.7.1

Video
ID                                       : 1
Format                                   : AVC
Format/Info                              : Advanced Video Codec
Format profile                           : High@L4
Format settings                          : CABAC / 4 Ref Frames
Format settings, CABAC                   : Yes
Format settings, Reference frames        : 4 frames
Codec ID                                 : V_MPEG4/ISO/AVC
Duration                                 : 41 min 58 s
Bit rate mode                            : Constant
Bit rate                                 : 9 150 kb/s
Nominal bit rate                         : 10 000 kb/s
Width                                    : 1 920 pixels
Height                                   : 1 080 pixels
Display aspect ratio                     : 16:9
Frame rate mode                          : Constant
Frame rate                               : 23.976 (24000/1001) FPS
Color space                              : YUV
Chroma subsampling                       : 4:2:0
Bit depth                                : 8 bits
Scan type                                : Progressive
Bits/(Pixel*Frame)                       : 0.184
Stream size                              : 2.68 GiB (93%)
Default                                  : Yes
Forced                                   : No
Color range                              : Limited
Color primaries                          : BT.709
Transfer characteristics                 : BT.709
Matrix coefficients                      : BT.709

Audio
ID                                       : 2
Format                                   : E-AC-3
Format/Info                              : Enhanced AC-3
Commercial name                          : Dolby Digital Plus
Codec ID                                 : A_EAC3
Duration                                 : 41 min 58 s
Bit rate mode                            : Constant
Bit rate                                 : 640 kb/s
Channel(s)                               : 6 channels
Channel layout                           : L R C LFE Ls Rs
Sampling rate                            : 48.0 kHz
Frame rate                               : 31.250 FPS (1536 SPF)
Compression mode                         : Lossy
Stream size                              : 192 MiB (7%)
Language                                 : English (US)
Service kind                             : Complete Main
Default                                  : Yes
Forced                                   : No

Text #1
ID                                       : 3
Format                                   : UTF-8
Codec ID                                 : S_TEXT/UTF8
Codec ID/Info                            : UTF-8 Plain Text
Duration                                 : 40 min 32 s
Bit rate                                 : 96 b/s
Frame rate                               : 0.363 FPS
Count of elements                        : 883
Stream size                              : 28.7 KiB (0%)
Language                                 : English (US)
Default                                  : No
Forced                                   : No

Text #2
ID                                       : 4
Format                                   : UTF-8
Codec ID                                 : S_TEXT/UTF8
Codec ID/Info                            : UTF-8 Plain Text
Duration                                 : 41 min 45 s
Bit rate                                 : 96 b/s
Frame rate                               : 0.375 FPS
Count of elements                        : 940
Stream size                              : 29.5 KiB (0%)
Title                                    : SDH
Language                                 : English (US)
Default                                  : No
Forced                                   : No



Download
File Container: MKV
Video/Audio Codec: H264 (HIGH) EAC3
Video Resolution: 1920x1080

1 Response to "[RR/NF] Law and Order S23E04 Unintended Consequences 1080p AMZN WEB-DL DDP5 1 H 264-NTb (2.9GB)"
02/11/24
19:59:17
ReadyPlayerOne

Thank You

Please Login to post a comment.
If you don't have any account, please Register.
  • Subscribe my Feeds
  • Facebook
Encoding Queue:  x264  x265

Latest Episodes

Popular Movies and TV Shows

  • S.W.A.T.
  • Fire Country
  • Blue Bloods
  • Firefox
  • The Late Game
  • Simon
  • Spaceman
  • Real Time with Bill Maher
  • The Rookie
  • Young Sheldon
  • Megamind vs. The Doom Syndicate
  • Lola
  • Masters of the Air
  • Halo
  • BMF
  • The Seeding
  • Alice in Terrorland
  • Dune: Part Two
  • Ghosts
  • Elsbeth
  • Hightown
  • Northern Comfort
  • The Chapel
  • Camp Pleasant Lake
  • Resident Alien

Recent Comments

  • ruf999:

    hanyou

  • uncabrian: If you can, please upload other seasons of "Eureka" in the same format and size. Much appr...
  • pr4455:

    hi this movie has no audio just commentry

  • asalan:

    please reupload.

  • asalan:

    reupload please.

  • newuser:

    need English Sub that Sync

  • Bud:

    Can we get a re-up on the clicknupload link please? Current link is dead.

Archives