Sign Up   |   Sign In  
Arthur the KingNCISNCIS: Hawai'iDowntown OwlBaby ReindeerMR-9: Do or DieShogunMonkey ManThe NeighborhoodBob Hearts AbisholaAftermathThe Magnificent SevenThe SimpsonsAll AmericanGrey's AnatomyI'm Reed FishOne LifeTime AddictsTrackerThe Bold and the BeautifulThe SympathizerDune: Part TwoKung Fu Panda 4Rebel Moon - Part Two: The ScargiverRed Eye

Announcements

03/01

2024

1

Comments

Law and Order S23E06 On the Ledge 720p AMZN WEB-DL DDP5 1 H 264-NTb
[RR/NF/CU]
Size: 1.3GB mkv H264 (HIGH) / EAC3  HD  1280x720

Law & Order
File Information
[img]http://lookpic.com/cdn/i2/t/0301202415553156-1.jpg[/img]
[img]http://lookpic.com/cdn/i2/t/0301202415553156-2.jpg[/img]
[img]http://lookpic.com/cdn/i2/t/0301202415553156-3.jpg[/img]

General
Unique ID                                : 6330623686827375888767276824398143535 (0x4C33BD883E89341E1E8EF6D2CE4202F)
Complete name                            : Law.and.Order.S23E06.On.the.Ledge.720p.AMZN.WEB-DL.DDP5.1.H.264-NTb.mkv
Format                                   : Matroska
Format version                           : Version 4
File size                                : 1.33 GiB
Duration                                 : 42 min 38 s
Overall bit rate                         : 4 470 kb/s
Frame rate                               : 23.976 FPS
Writing application                      : mkvmerge v81.0 ('Milliontown') 64-bit
Writing library                          : libebml v1.4.4 + libmatroska v1.7.1

Video
ID                                       : 1
Format                                   : AVC
Format/Info                              : Advanced Video Codec
Format profile                           : High@L3.1
Format settings                          : CABAC / 4 Ref Frames
Format settings, CABAC                   : Yes
Format settings, Reference frames        : 4 frames
Codec ID                                 : V_MPEG4/ISO/AVC
Duration                                 : 42 min 38 s
Bit rate mode                            : Constant
Bit rate                                 : 3 828 kb/s
Nominal bit rate                         : 6 000 kb/s
Width                                    : 1 280 pixels
Height                                   : 720 pixels
Display aspect ratio                     : 16:9
Frame rate mode                          : Constant
Frame rate                               : 23.976 (24000/1001) FPS
Color space                              : YUV
Chroma subsampling                       : 4:2:0
Bit depth                                : 8 bits
Scan type                                : Progressive
Bits/(Pixel*Frame)                       : 0.173
Stream size                              : 1.14 GiB (86%)
Default                                  : Yes
Forced                                   : No
Color range                              : Limited
Color primaries                          : BT.709
Transfer characteristics                 : BT.709
Matrix coefficients                      : BT.709

Audio
ID                                       : 2
Format                                   : E-AC-3
Format/Info                              : Enhanced AC-3
Commercial name                          : Dolby Digital Plus
Codec ID                                 : A_EAC3
Duration                                 : 42 min 38 s
Bit rate mode                            : Constant
Bit rate                                 : 640 kb/s
Channel(s)                               : 6 channels
Channel layout                           : L R C LFE Ls Rs
Sampling rate                            : 48.0 kHz
Frame rate                               : 31.250 FPS (1536 SPF)
Compression mode                         : Lossy
Stream size                              : 195 MiB (14%)
Language                                 : English (US)
Service kind                             : Complete Main
Default                                  : Yes
Forced                                   : No

Text #1
ID                                       : 3
Format                                   : UTF-8
Codec ID                                 : S_TEXT/UTF8
Codec ID/Info                            : UTF-8 Plain Text
Duration                                 : 41 min 21 s
Bit rate                                 : 83 b/s
Frame rate                               : 0.365 FPS
Count of elements                        : 906
Stream size                              : 25.3 KiB (0%)
Language                                 : English (US)
Default                                  : No
Forced                                   : No

Text #2
ID                                       : 4
Format                                   : UTF-8
Codec ID                                 : S_TEXT/UTF8
Codec ID/Info                            : UTF-8 Plain Text
Duration                                 : 42 min 25 s
Bit rate                                 : 84 b/s
Frame rate                               : 0.385 FPS
Count of elements                        : 980
Stream size                              : 26.3 KiB (0%)
Title                                    : SDH
Language                                 : English (US)
Default                                  : No
Forced                                   : No



Download
File Container: MKV
Video/Audio Codec: H264 (HIGH) EAC3
Video Resolution: 1280x720

1 Response to "[RR/NF/CU] Law and Order S23E06 On the Ledge 720p AMZN WEB-DL DDP5 1 H 264-NTb (1.3GB)"
03/01/24
18:01:37
ReadyPlayerOne

Thank You

Please Login to post a comment.
If you don't have any account, please Register.
  • Subscribe my Feeds
  • Facebook
Encoding Queue:  x264  x265

Latest Episodes

Popular Movies and TV Shows

  • Arthur the King
  • NCIS
  • NCIS: Hawai'i
  • Downtown Owl
  • Baby Reindeer
  • MR-9: Do or Die
  • Shogun
  • Monkey Man
  • The Neighborhood
  • Bob Hearts Abishola
  • Aftermath
  • The Magnificent Seven
  • The Simpsons
  • All American
  • Grey's Anatomy
  • I'm Reed Fish
  • One Life
  • Time Addicts
  • Tracker
  • The Bold and the Beautiful
  • The Sympathizer
  • Dune: Part Two
  • Kung Fu Panda 4
  • Rebel Moon - Part Two: The Scargiver
  • Red Eye

Recent Comments

  • mentalityx:

    Thx dude.

  • 89M:

    NitroFlare's link is missing !!!
    Clicknupload's link is missing !!!

  • V4ND4L: May we get a ClicknUpload link for this, please. It's conspicuously missing for the team/size.
  • Bud:

    The file's half the size it should be & corrupted. Useless. Avoid.

  • mentalityx:

    Rad dude

  • mentalityx:

    Rad mate

  • waanaabe:

    I tried this file with 3 different players which all said they couldn't read the codec

  • Rosa: hi i have a question,this file size is 198mb,but on clickenupload is only 118mb is it right? what ha...
  • mike1204:

    Any reason why this episode is omitted from 'click'n'upload??

  • kellym2: I appreciate all the hard work the team does BUT there is no point in my paying for a Premium subscr...
  • Cinque_Persson: Why not skip the old news and hearsay and be constructive: what's the best alternatives for Win, Mac...
  • fallensammer:

    the file on click upload is 119mg onnly and is corrupted

  • ronkanon:

    Could you please provide a ClicknUpload link?

  • ronkanon:

    Could you please provide a ClicknUpload link?

  • waanaabe: Could you Kindly Upload the SOUTH PARK seasons to CU as well? Would be really appreciated
  • gusmac67:

    Clickupload link is corrupt. File bad at 38 min

  • timt:

    Narrated Movie!

Archives