Sign Up   |   Sign In  
Star Trek: DiscoverySolo LevelingCrewAmerican StarA Condition Called LoveDisneynature: Wings of LifeShark TankHacksThe Blue AngelsEvilBright AngelReunionThe Good DoctorGrey's AnatomyConcordiaThe Fall GuyWater's EdgeCarol Doda Topless at the CondorChicago FireChicago P.D.FBIMad GodLadies and Gentlemen: The Rolling StonesBoy Kills WorldThe Rookie

Announcements

04/12

2024

1

Comments

Law and Order S23E09 Family Ties 720p AMZN WEB-DL DDP5 1 H 264-NTb
[RR/NF/CU]
Size: 1.4GB mkv H264 (HIGH) / EAC3  HD  1280x720

Law & Order
File Information
[img]http://lookpic.com/cdn/i2/t/0412202415592272-1.jpg[/img]
[img]http://lookpic.com/cdn/i2/t/0412202415592272-2.jpg[/img]
[img]http://lookpic.com/cdn/i2/t/0412202415592272-3.jpg[/img]

General
Unique ID                                : 326617030270142609940131839499301894467 (0xF5B826E28D5358A3445B69AE37113943)
Complete name                            : Law and Order S23E09 Family Ties 720p AMZN WEB-DL DDP5 1 H 264-NTb.mkv
Format                                   : Matroska
Format version                           : Version 4
File size                                : 1.41 GiB
Duration                                 : 42 min 7 s
Overall bit rate                         : 4 808 kb/s
Frame rate                               : 23.976 FPS
Writing application                      : mkvmerge v81.0 ('Milliontown') 64-bit
Writing library                          : libebml v1.4.4 + libmatroska v1.7.1

Video
ID                                       : 1
Format                                   : AVC
Format/Info                              : Advanced Video Codec
Format profile                           : High@L3.1
Format settings                          : CABAC / 4 Ref Frames
Format settings, CABAC                   : Yes
Format settings, Reference frames        : 4 frames
Codec ID                                 : V_MPEG4/ISO/AVC
Duration                                 : 42 min 7 s
Bit rate mode                            : Constant
Bit rate                                 : 4 166 kb/s
Nominal bit rate                         : 6 000 kb/s
Width                                    : 1 280 pixels
Height                                   : 720 pixels
Display aspect ratio                     : 16:9
Frame rate mode                          : Constant
Frame rate                               : 23.976 (24000/1001) FPS
Color space                              : YUV
Chroma subsampling                       : 4:2:0
Bit depth                                : 8 bits
Scan type                                : Progressive
Bits/(Pixel*Frame)                       : 0.189
Stream size                              : 1.23 GiB (87%)
Default                                  : Yes
Forced                                   : No
Color range                              : Limited
Color primaries                          : BT.709
Transfer characteristics                 : BT.709
Matrix coefficients                      : BT.709

Audio
ID                                       : 2
Format                                   : E-AC-3
Format/Info                              : Enhanced AC-3
Commercial name                          : Dolby Digital Plus
Codec ID                                 : A_EAC3
Duration                                 : 42 min 7 s
Bit rate mode                            : Constant
Bit rate                                 : 640 kb/s
Channel(s)                               : 6 channels
Channel layout                           : L R C LFE Ls Rs
Sampling rate                            : 48.0 kHz
Frame rate                               : 31.250 FPS (1536 SPF)
Compression mode                         : Lossy
Stream size                              : 193 MiB (13%)
Language                                 : English (US)
Service kind                             : Complete Main
Default                                  : Yes
Forced                                   : No

Text #1
ID                                       : 3
Format                                   : UTF-8
Codec ID                                 : S_TEXT/UTF8
Codec ID/Info                            : UTF-8 Plain Text
Duration                                 : 41 min 5 s
Bit rate                                 : 94 b/s
Frame rate                               : 0.363 FPS
Count of elements                        : 894
Stream size                              : 28.4 KiB (0%)
Language                                 : English (US)
Default                                  : No
Forced                                   : No

Text #2
ID                                       : 4
Format                                   : UTF-8
Codec ID                                 : S_TEXT/UTF8
Codec ID/Info                            : UTF-8 Plain Text
Duration                                 : 41 min 59 s
Bit rate                                 : 95 b/s
Frame rate                               : 0.385 FPS
Count of elements                        : 970
Stream size                              : 29.4 KiB (0%)
Title                                    : SDH
Language                                 : English (US)
Default                                  : No
Forced                                   : No



Download
File Container: MKV
Video/Audio Codec: H264 (HIGH) EAC3
Video Resolution: 1280x720

1 Response to "[RR/NF/CU] Law and Order S23E09 Family Ties 720p AMZN WEB-DL DDP5 1 H 264-NTb (1.4GB)"
04/12/24
17:44:32
ReadyPlayerOne

Thank You

Please Login to post a comment.
If you don't have any account, please Register.
  • Subscribe my Feeds
  • Facebook
Encoding Queue:  x264  x265

Latest Episodes

Popular Movies and TV Shows

  • Star Trek: Discovery
  • Solo Leveling
  • Crew
  • American Star
  • A Condition Called Love
  • Disneynature: Wings of Life
  • Shark Tank
  • Hacks
  • The Blue Angels
  • Evil
  • Bright Angel
  • Reunion
  • The Good Doctor
  • Grey's Anatomy
  • Concordia
  • The Fall Guy
  • Water's Edge
  • Carol Doda Topless at the Condor
  • Chicago Fire
  • Chicago P.D.
  • FBI
  • Mad God
  • Ladies and Gentlemen: The Rolling Stones
  • Boy Kills World
  • The Rookie

Recent Comments

  • meyat74:

    please add if possible new episodes 5-6

  • DuranDuran: THE MS PAT show = Does anyone have BOTH the MS PAT show (SEASON 3)-and- (SEASON 4) that just came ou...
  • big_ralphie: Just sitting down to watch and, yes there are subtitles...in ITALIAN ONLY. ENGLISH subs might be hel...
  • Geependo:

    All links are dead

  • OldMovies:

    Has Czech subtitles but not English. Need forced English for the foreign language parts.

  • PROFessorMorrynarty: Would it be possible to upload 'Lego masters Australia' Series 6 Episode 6 Please? It's the only one...
  • mentalityx:

    Thx mate.

  • Bud: Is the search engine down for everyone, or just me? It just says 'You're forbidden!' whenever I lo...

Archives