Sign Up   |   Sign In  
House of the DragonNCISPhysicalReturn to Never LandRide AlongRemember MeMayor of KingstownMy Adventures with SupermanTwo Way Stretch60 MinutesCats in the MuseumZenon: The ZequelWalkerInterview with the VampireHotel CocaineCalamity JaneOctopussyJack Whitehall: Settle DownWWE NXTThe Loud HouseYoung SheldonDaaaaaali!Kung Fu HustleLicence to KillThe Daily Show

Announcements

05/17

2024

1

Comments

Law and Order S23E13 In Harms Way 1080p AMZN WEB-DL DDP5 1 H 264-NTb
[RR/NF]
Size: 2.9GB mkv H264 (HIGH) / EAC3  HD  1920x1080

Law & Order
File Information
[img]http://lookpic.com/cdn/i2/t/0517202416265480-1.jpg[/img]
[img]http://lookpic.com/cdn/i2/t/0517202416265480-2.jpg[/img]
[img]http://lookpic.com/cdn/i2/t/0517202416265480-3.jpg[/img]

General
Unique ID                                : 318825480811868399638072064747311265880 (0xEFDB8DD66992DFBFB95E589D82E8F858)
Complete name                            : Law.and.Order.S23E13.In.Harms.Way.1080p.AMZN.WEB-DL.DDP5.1.H.264-NTb.mkv
Format                                   : Matroska
Format version                           : Version 4
File size                                : 2.91 GiB
Duration                                 : 42 min 2 s
Overall bit rate                         : 9 924 kb/s
Frame rate                               : 23.976 FPS
Writing application                      : mkvmerge v84.0 ('Sleeper') 64-bit
Writing library                          : libebml v1.4.5 + libmatroska v1.7.1

Video
ID                                       : 1
Format                                   : AVC
Format/Info                              : Advanced Video Codec
Format profile                           : High@L4
Format settings                          : CABAC / 4 Ref Frames
Format settings, CABAC                   : Yes
Format settings, Reference frames        : 4 frames
Codec ID                                 : V_MPEG4/ISO/AVC
Duration                                 : 42 min 2 s
Bit rate mode                            : Constant
Bit rate                                 : 9 282 kb/s
Nominal bit rate                         : 10 000 kb/s
Width                                    : 1 920 pixels
Height                                   : 1 080 pixels
Display aspect ratio                     : 16:9
Frame rate mode                          : Constant
Frame rate                               : 23.976 (24000/1001) FPS
Color space                              : YUV
Chroma subsampling                       : 4:2:0
Bit depth                                : 8 bits
Scan type                                : Progressive
Bits/(Pixel*Frame)                       : 0.187
Stream size                              : 2.73 GiB (94%)
Default                                  : Yes
Forced                                   : No
Color range                              : Limited
Color primaries                          : BT.709
Transfer characteristics                 : BT.709
Matrix coefficients                      : BT.709

Audio
ID                                       : 2
Format                                   : E-AC-3
Format/Info                              : Enhanced AC-3
Commercial name                          : Dolby Digital Plus
Codec ID                                 : A_EAC3
Duration                                 : 42 min 2 s
Bit rate mode                            : Constant
Bit rate                                 : 640 kb/s
Channel(s)                               : 6 channels
Channel layout                           : L R C LFE Ls Rs
Sampling rate                            : 48.0 kHz
Frame rate                               : 31.250 FPS (1536 SPF)
Compression mode                         : Lossy
Stream size                              : 192 MiB (6%)
Language                                 : English (US)
Service kind                             : Complete Main
Default                                  : Yes
Forced                                   : No

Text #1
ID                                       : 3
Format                                   : UTF-8
Codec ID                                 : S_TEXT/UTF8
Codec ID/Info                            : UTF-8 Plain Text
Duration                                 : 41 min 6 s
Bit rate                                 : 90 b/s
Frame rate                               : 0.355 FPS
Count of elements                        : 876
Stream size                              : 27.3 KiB (0%)
Language                                 : English (US)
Default                                  : No
Forced                                   : No

Text #2
ID                                       : 4
Format                                   : UTF-8
Codec ID                                 : S_TEXT/UTF8
Codec ID/Info                            : UTF-8 Plain Text
Duration                                 : 41 min 54 s
Bit rate                                 : 91 b/s
Frame rate                               : 0.372 FPS
Count of elements                        : 935
Stream size                              : 28.2 KiB (0%)
Title                                    : SDH
Language                                 : English (US)
Default                                  : No
Forced                                   : No



Download
File Container: MKV
Video/Audio Codec: H264 (HIGH) EAC3
Video Resolution: 1920x1080

1 Response to "[RR/NF] Law and Order S23E13 In Harms Way 1080p AMZN WEB-DL DDP5 1 H 264-NTb (2.9GB)"
05/17/24
16:56:36
ReadyPlayerOne

Thank You

Please Login to post a comment.
If you don't have any account, please Register.
  • Subscribe my Feeds
  • Facebook
Encoding Queue:  x264  x265

Latest Episodes

Popular Movies and TV Shows

  • House of the Dragon
  • NCIS
  • Physical
  • Return to Never Land
  • Ride Along
  • Remember Me
  • Mayor of Kingstown
  • My Adventures with Superman
  • Two Way Stretch
  • 60 Minutes
  • Cats in the Museum
  • Zenon: The Zequel
  • Walker
  • Interview with the Vampire
  • Hotel Cocaine
  • Calamity Jane
  • Octopussy
  • Jack Whitehall: Settle Down
  • WWE NXT
  • The Loud House
  • Young Sheldon
  • Daaaaaali!
  • Kung Fu Hustle
  • Licence to Kill
  • The Daily Show

Recent Comments

Archives