Sign Up   |   Sign In  
House of the DragonNCISMythic QuestReturn to Never LandZenon: The ZequelZenon: Z3Mayor of KingstownMy Adventures with SupermanTwo Way Stretch60 MinutesCats in the MuseumCalamity JaneWalkerInterview with the VampireHotel CocaineOctopussyJack Whitehall: Settle DownI'll Be FrankWWE NXTThe Loud HouseLadies in BlackDaaaaaali!Kung Fu HustleLicence to KillThe Daily Show

Announcements

05/17

2024

1

Comments

Law and Order S23E13 In Harms Way 720p AMZN WEB-DL DDP5 1 H 264-NTb
[RR/NF/CU]
Size: 1.5GB mkv H264 (HIGH) / EAC3  HD  1280x720

Law & Order
File Information
[img]http://lookpic.com/cdn/i2/t/0517202416314450-1.jpg[/img]
[img]http://lookpic.com/cdn/i2/t/0517202416314450-2.jpg[/img]
[img]http://lookpic.com/cdn/i2/t/0517202416314450-3.jpg[/img]

General
Unique ID                                : 70347105346808091196314528833600447103 (0x34EC5C1341C915D16257AF8909CF627F)
Complete name                            : Law.and.Order.S23E13.In.Harms.Way.720p.AMZN.WEB-DL.DDP5.1.H.264-NTb.mkv
Format                                   : Matroska
Format version                           : Version 4
File size                                : 1.51 GiB
Duration                                 : 42 min 2 s
Overall bit rate                         : 5 133 kb/s
Frame rate                               : 23.976 FPS
Writing application                      : mkvmerge v84.0 ('Sleeper') 64-bit
Writing library                          : libebml v1.4.5 + libmatroska v1.7.1

Video
ID                                       : 1
Format                                   : AVC
Format/Info                              : Advanced Video Codec
Format profile                           : High@L3.1
Format settings                          : CABAC / 4 Ref Frames
Format settings, CABAC                   : Yes
Format settings, Reference frames        : 4 frames
Codec ID                                 : V_MPEG4/ISO/AVC
Duration                                 : 42 min 2 s
Bit rate mode                            : Constant
Bit rate                                 : 4 490 kb/s
Nominal bit rate                         : 6 000 kb/s
Width                                    : 1 280 pixels
Height                                   : 720 pixels
Display aspect ratio                     : 16:9
Frame rate mode                          : Constant
Frame rate                               : 23.976 (24000/1001) FPS
Color space                              : YUV
Chroma subsampling                       : 4:2:0
Bit depth                                : 8 bits
Scan type                                : Progressive
Bits/(Pixel*Frame)                       : 0.203
Stream size                              : 1.32 GiB (87%)
Default                                  : Yes
Forced                                   : No
Color range                              : Limited
Color primaries                          : BT.709
Transfer characteristics                 : BT.709
Matrix coefficients                      : BT.709

Audio
ID                                       : 2
Format                                   : E-AC-3
Format/Info                              : Enhanced AC-3
Commercial name                          : Dolby Digital Plus
Codec ID                                 : A_EAC3
Duration                                 : 42 min 2 s
Bit rate mode                            : Constant
Bit rate                                 : 640 kb/s
Channel(s)                               : 6 channels
Channel layout                           : L R C LFE Ls Rs
Sampling rate                            : 48.0 kHz
Frame rate                               : 31.250 FPS (1536 SPF)
Compression mode                         : Lossy
Stream size                              : 192 MiB (12%)
Language                                 : English (US)
Service kind                             : Complete Main
Default                                  : Yes
Forced                                   : No

Text #1
ID                                       : 3
Format                                   : UTF-8
Codec ID                                 : S_TEXT/UTF8
Codec ID/Info                            : UTF-8 Plain Text
Duration                                 : 41 min 6 s
Bit rate                                 : 90 b/s
Frame rate                               : 0.355 FPS
Count of elements                        : 876
Stream size                              : 27.3 KiB (0%)
Language                                 : English (US)
Default                                  : No
Forced                                   : No

Text #2
ID                                       : 4
Format                                   : UTF-8
Codec ID                                 : S_TEXT/UTF8
Codec ID/Info                            : UTF-8 Plain Text
Duration                                 : 41 min 54 s
Bit rate                                 : 91 b/s
Frame rate                               : 0.372 FPS
Count of elements                        : 935
Stream size                              : 28.2 KiB (0%)
Title                                    : SDH
Language                                 : English (US)
Default                                  : No
Forced                                   : No



Download
File Container: MKV
Video/Audio Codec: H264 (HIGH) EAC3
Video Resolution: 1280x720

1 Response to "[RR/NF/CU] Law and Order S23E13 In Harms Way 720p AMZN WEB-DL DDP5 1 H 264-NTb (1.5GB)"
05/17/24
16:57:23
ReadyPlayerOne

Thank You

Please Login to post a comment.
If you don't have any account, please Register.
  • Subscribe my Feeds
  • Facebook
Encoding Queue:  x264  x265

Latest Episodes

Popular Movies and TV Shows

  • House of the Dragon
  • NCIS
  • Mythic Quest
  • Return to Never Land
  • Zenon: The Zequel
  • Zenon: Z3
  • Mayor of Kingstown
  • My Adventures with Superman
  • Two Way Stretch
  • 60 Minutes
  • Cats in the Museum
  • Calamity Jane
  • Walker
  • Interview with the Vampire
  • Hotel Cocaine
  • Octopussy
  • Jack Whitehall: Settle Down
  • I'll Be Frank
  • WWE NXT
  • The Loud House
  • Ladies in Black
  • Daaaaaali!
  • Kung Fu Hustle
  • Licence to Kill
  • The Daily Show

Recent Comments

Archives