Sign Up   |   Sign In  
Wolf Like MeMaid DroidS.W.A.T.Blue BloodsThe Fault in Our StarsAazamThe RookieFire CountryDuneAll the Names of GodMalpracticeThe Late GameSpacemanYoung SheldonReal Time with Bill MaherHaloLolaThe SeedingMasters of the AirMegamind vs. The Doom SyndicateGhostsBMFDune: Part TwoNorthern ComfortResident Alien

Announcements

02/11

2024

1

Comments

Law and Order Special Victims Unit S25E04 Duty to Report 1080p AMZN WEB-DL DDP5 1 H 264-NTb
[RR/NF]
Size: 3GB mkv H264 (HIGH) / EAC3  HD  1920x1080

Law & Order: Special Victims Unit
File Information
[img]http://lookpic.com/cdn/i2/t/0211202409093509-1.jpg[/img]
[img]http://lookpic.com/cdn/i2/t/0211202409093509-2.jpg[/img]
[img]http://lookpic.com/cdn/i2/t/0211202409093509-3.jpg[/img]

General
Unique ID                                : 322237295098878195509982690054483022630 (0xF26CA544EC38CEEF6BFF49F309791326)
Complete name                            : Law.and.Order.Special.Victims.Unit.S25E04.Duty.to.Report.1080p.AMZN.WEB-DL.DDP5.1.H.264-NTb.mkv
Format                                   : Matroska
Format version                           : Version 4
File size                                : 2.97 GiB
Duration                                 : 42 min 14 s
Overall bit rate                         : 10.1 Mb/s
Frame rate                               : 23.976 FPS
Writing application                      : mkvmerge v81.0 ('Milliontown') 64-bit
Writing library                          : libebml v1.4.4 + libmatroska v1.7.1

Video
ID                                       : 1
Format                                   : AVC
Format/Info                              : Advanced Video Codec
Format profile                           : High@L4
Format settings                          : CABAC / 4 Ref Frames
Format settings, CABAC                   : Yes
Format settings, Reference frames        : 4 frames
Codec ID                                 : V_MPEG4/ISO/AVC
Duration                                 : 42 min 14 s
Bit rate mode                            : Constant
Bit rate                                 : 9 431 kb/s
Nominal bit rate                         : 10 000 kb/s
Width                                    : 1 920 pixels
Height                                   : 1 080 pixels
Display aspect ratio                     : 16:9
Frame rate mode                          : Constant
Frame rate                               : 23.976 (24000/1001) FPS
Color space                              : YUV
Chroma subsampling                       : 4:2:0
Bit depth                                : 8 bits
Scan type                                : Progressive
Bits/(Pixel*Frame)                       : 0.190
Stream size                              : 2.78 GiB (94%)
Default                                  : Yes
Forced                                   : No
Color range                              : Limited
Color primaries                          : BT.709
Transfer characteristics                 : BT.709
Matrix coefficients                      : BT.709

Audio
ID                                       : 2
Format                                   : E-AC-3
Format/Info                              : Enhanced AC-3
Commercial name                          : Dolby Digital Plus
Codec ID                                 : A_EAC3
Duration                                 : 42 min 14 s
Bit rate mode                            : Constant
Bit rate                                 : 640 kb/s
Channel(s)                               : 6 channels
Channel layout                           : L R C LFE Ls Rs
Sampling rate                            : 48.0 kHz
Frame rate                               : 31.250 FPS (1536 SPF)
Compression mode                         : Lossy
Stream size                              : 193 MiB (6%)
Language                                 : English (US)
Service kind                             : Complete Main
Default                                  : Yes
Forced                                   : No

Text #1
ID                                       : 3
Format                                   : UTF-8
Codec ID                                 : S_TEXT/UTF8
Codec ID/Info                            : UTF-8 Plain Text
Duration                                 : 41 min 19 s
Bit rate                                 : 92 b/s
Frame rate                               : 0.370 FPS
Count of elements                        : 917
Stream size                              : 28.1 KiB (0%)
Language                                 : English (US)
Default                                  : No
Forced                                   : No

Text #2
ID                                       : 4
Format                                   : UTF-8
Codec ID                                 : S_TEXT/UTF8
Codec ID/Info                            : UTF-8 Plain Text
Duration                                 : 42 min 6 s
Bit rate                                 : 93 b/s
Frame rate                               : 0.384 FPS
Count of elements                        : 969
Stream size                              : 28.9 KiB (0%)
Title                                    : SDH
Language                                 : English (US)
Default                                  : No
Forced                                   : No



Download
File Container: MKV
Video/Audio Codec: H264 (HIGH) EAC3
Video Resolution: 1920x1080

1 Response to "[RR/NF] Law and Order Special Victims Unit S25E04 Duty to Report 1080p AMZN WEB-DL DDP5 1 H 264-NTb (3GB)"
02/11/24
19:52:23
ReadyPlayerOne

Thank You

Please Login to post a comment.
If you don't have any account, please Register.
  • Subscribe my Feeds
  • Facebook
Encoding Queue:  x264  x265

Latest Episodes

Popular Movies and TV Shows

  • Wolf Like Me
  • Maid Droid
  • S.W.A.T.
  • Blue Bloods
  • The Fault in Our Stars
  • Aazam
  • The Rookie
  • Fire Country
  • Dune
  • All the Names of God
  • Malpractice
  • The Late Game
  • Spaceman
  • Young Sheldon
  • Real Time with Bill Maher
  • Halo
  • Lola
  • The Seeding
  • Masters of the Air
  • Megamind vs. The Doom Syndicate
  • Ghosts
  • BMF
  • Dune: Part Two
  • Northern Comfort
  • Resident Alien

Recent Comments

  • ruf999:

    hanyou

  • uncabrian: If you can, please upload other seasons of "Eureka" in the same format and size. Much appr...
  • pr4455:

    hi this movie has no audio just commentry

  • asalan:

    please reupload.

  • asalan:

    reupload please.

  • newuser:

    need English Sub that Sync

  • Bud:

    Can we get a re-up on the clicknupload link please? Current link is dead.

Archives