Sign Up   |   Sign In  
Chicago P.D.Chicago FireAbbott ElementaryA Bullet for JoeyNight SwimThe PianistMoonedWild CardsStar Wars: The Bad BatchChicago MedSlaughterhouse Slumber PartyA Couch in New YorkConstellationThe RookieThe Good DoctorPink Floyd: The Dark Side of the Moon (50th Anniversary Box Set)RuthlessLouis C.K.: Back to the GardenWill TrentFBIQuantum LeapThe Mental StateMean GirlsTurn Me On, Dammit!Monsieur Spade

Announcements

02/11

2024

1

Comments

Law and Order Special Victims Unit S25E04 Duty to Report 720p AMZN WEB-DL DDP5 1 H 264-NTb
[RR/NF/CU]
Size: 1.6GB mkv H264 (HIGH) / EAC3  HD  1280x720

Law & Order: Special Victims Unit
File Information
[img]http://lookpic.com/cdn/i2/t/0211202409111954-1.jpg[/img]
[img]http://lookpic.com/cdn/i2/t/0211202409111954-2.jpg[/img]
[img]http://lookpic.com/cdn/i2/t/0211202409111954-3.jpg[/img]

General
Unique ID                                : 255454896802020562253344108313370258765 (0xC02ED2D2266DD6D1806FEA8AA3C56D4D)
Complete name                            : Law.and.Order.Special.Victims.Unit.S25E04.Duty.to.Report.720p.AMZN.WEB-DL.DDP5.1.H.264-NTb.mkv
Format                                   : Matroska
Format version                           : Version 4
File size                                : 1.60 GiB
Duration                                 : 42 min 14 s
Overall bit rate                         : 5 415 kb/s
Frame rate                               : 23.976 FPS
Writing application                      : mkvmerge v81.0 ('Milliontown') 64-bit
Writing library                          : libebml v1.4.4 + libmatroska v1.7.1

Video
ID                                       : 1
Format                                   : AVC
Format/Info                              : Advanced Video Codec
Format profile                           : High@L3.1
Format settings                          : CABAC / 4 Ref Frames
Format settings, CABAC                   : Yes
Format settings, Reference frames        : 4 frames
Codec ID                                 : V_MPEG4/ISO/AVC
Duration                                 : 42 min 14 s
Bit rate mode                            : Constant
Bit rate                                 : 4 773 kb/s
Nominal bit rate                         : 6 000 kb/s
Width                                    : 1 280 pixels
Height                                   : 720 pixels
Display aspect ratio                     : 16:9
Frame rate mode                          : Constant
Frame rate                               : 23.976 (24000/1001) FPS
Color space                              : YUV
Chroma subsampling                       : 4:2:0
Bit depth                                : 8 bits
Scan type                                : Progressive
Bits/(Pixel*Frame)                       : 0.216
Stream size                              : 1.41 GiB (88%)
Default                                  : Yes
Forced                                   : No
Color range                              : Limited
Color primaries                          : BT.709
Transfer characteristics                 : BT.709
Matrix coefficients                      : BT.709

Audio
ID                                       : 2
Format                                   : E-AC-3
Format/Info                              : Enhanced AC-3
Commercial name                          : Dolby Digital Plus
Codec ID                                 : A_EAC3
Duration                                 : 42 min 14 s
Bit rate mode                            : Constant
Bit rate                                 : 640 kb/s
Channel(s)                               : 6 channels
Channel layout                           : L R C LFE Ls Rs
Sampling rate                            : 48.0 kHz
Frame rate                               : 31.250 FPS (1536 SPF)
Compression mode                         : Lossy
Stream size                              : 193 MiB (12%)
Language                                 : English (US)
Service kind                             : Complete Main
Default                                  : Yes
Forced                                   : No

Text #1
ID                                       : 3
Format                                   : UTF-8
Codec ID                                 : S_TEXT/UTF8
Codec ID/Info                            : UTF-8 Plain Text
Duration                                 : 41 min 19 s
Bit rate                                 : 92 b/s
Frame rate                               : 0.370 FPS
Count of elements                        : 917
Stream size                              : 28.1 KiB (0%)
Language                                 : English (US)
Default                                  : No
Forced                                   : No

Text #2
ID                                       : 4
Format                                   : UTF-8
Codec ID                                 : S_TEXT/UTF8
Codec ID/Info                            : UTF-8 Plain Text
Duration                                 : 42 min 6 s
Bit rate                                 : 93 b/s
Frame rate                               : 0.384 FPS
Count of elements                        : 969
Stream size                              : 28.9 KiB (0%)
Title                                    : SDH
Language                                 : English (US)
Default                                  : No
Forced                                   : No



Download
File Container: MKV
Video/Audio Codec: H264 (HIGH) EAC3
Video Resolution: 1280x720

1 Response to "[RR/NF/CU] Law and Order Special Victims Unit S25E04 Duty to Report 720p AMZN WEB-DL DDP5 1 H 264-NTb (1.6GB)"
02/11/24
19:49:55
ReadyPlayerOne

Thank You

Please Login to post a comment.
If you don't have any account, please Register.
  • Subscribe my Feeds
  • Facebook

Latest Episodes

Popular Movies and TV Shows

  • Chicago P.D.
  • Chicago Fire
  • Abbott Elementary
  • A Bullet for Joey
  • Night Swim
  • The Pianist
  • Mooned
  • Wild Cards
  • Star Wars: The Bad Batch
  • Chicago Med
  • Slaughterhouse Slumber Party
  • A Couch in New York
  • Constellation
  • The Rookie
  • The Good Doctor
  • Pink Floyd: The Dark Side of the Moon (50th Anniversary Box Set)
  • Ruthless
  • Louis C.K.: Back to the Garden
  • Will Trent
  • FBI
  • Quantum Leap
  • The Mental State
  • Mean Girls
  • Turn Me On, Dammit!
  • Monsieur Spade

Recent Comments

  • tbbttbbt:

    All links are dead, NF is dead too

  • mentalityx:

    THanks for this.

  • KubrickFan:

    Any possibility of a fresh link for this? x264 preferably

  • bitz:

    reload please

  • stefan43: plaese reup on clicknupload.club
  • mentalityx:

    Thx for this one.

  • wxe09104:

    please add Monsieur Spade episode 6

  • ninjamouse28: can someone update this with the actual web-dl? it says it is but still has the logo, & some of ...
  • kellym2:

    Could you please put TV series "STRIFE" eps 1-8 on in 264 format. Much appreciated

  • bitz:

    travelers... wrong series?

Archives