Sign Up   |   Sign In  
All You Need Is DeathThe DiveThe Bold and the BeautifulKlaus & BarrosoDate a LiveThe Many Sides of Voice Actor RadioGhostbusters: Frozen EmpireX-Men '97Star Wars: The Bad BatchUnder the BridgeThe BricklayerEvil Does Not ExistFBIFBI: InternationalFBI: Most WantedGodzilla x Kong: The New EmpireAn American Bombing: The Road to April 19thImmaculateThe Cleaning LadyPalm RoyaleShogunLa margeDune: Part TwoJimmy Carr: Natural Born KillerNCIS

Announcements

02/23

2024

1

Comments

Law and Order Special Victims Unit S25E05 Zone Rouge 720p AMZN WEB-DL DDP5 1 H 264-NTb
[RR/NF/CU]
Size: 1.7GB mkv H264 (HIGH) / EAC3  HD  1280x720

Law & Order: Special Victims Unit
File Information
[img]http://lookpic.com/cdn/i2/t/0223202407123946-1.jpg[/img]
[img]http://lookpic.com/cdn/i2/t/0223202407123946-2.jpg[/img]
[img]http://lookpic.com/cdn/i2/t/0223202407123946-3.jpg[/img]

General
Unique ID                                : 289445516677206131038856847391727901457 (0xD9C12DC4C532F47BB86892F995615B11)
Complete name                            : Law.and.Order.Special.Victims.Unit.S25E05.Zone.Rouge.720p.AMZN.WEB-DL.DDP5.1.H.264-NTb.mkv
Format                                   : Matroska
Format version                           : Version 4
File size                                : 1.67 GiB
Duration                                 : 42 min 7 s
Overall bit rate                         : 5 685 kb/s
Frame rate                               : 23.976 FPS
Writing application                      : mkvmerge v81.0 ('Milliontown') 64-bit
Writing library                          : libebml v1.4.4 + libmatroska v1.7.1

Video
ID                                       : 1
Format                                   : AVC
Format/Info                              : Advanced Video Codec
Format profile                           : High@L3.1
Format settings                          : CABAC / 4 Ref Frames
Format settings, CABAC                   : Yes
Format settings, Reference frames        : 4 frames
Codec ID                                 : V_MPEG4/ISO/AVC
Duration                                 : 42 min 7 s
Bit rate mode                            : Constant
Bit rate                                 : 5 043 kb/s
Nominal bit rate                         : 6 000 kb/s
Width                                    : 1 280 pixels
Height                                   : 720 pixels
Display aspect ratio                     : 16:9
Frame rate mode                          : Constant
Frame rate                               : 23.976 (24000/1001) FPS
Color space                              : YUV
Chroma subsampling                       : 4:2:0
Bit depth                                : 8 bits
Scan type                                : Progressive
Bits/(Pixel*Frame)                       : 0.228
Stream size                              : 1.48 GiB (89%)
Default                                  : Yes
Forced                                   : No
Color range                              : Limited
Color primaries                          : BT.709
Transfer characteristics                 : BT.709
Matrix coefficients                      : BT.709

Audio
ID                                       : 2
Format                                   : E-AC-3
Format/Info                              : Enhanced AC-3
Commercial name                          : Dolby Digital Plus
Codec ID                                 : A_EAC3
Duration                                 : 42 min 7 s
Bit rate mode                            : Constant
Bit rate                                 : 640 kb/s
Channel(s)                               : 6 channels
Channel layout                           : L R C LFE Ls Rs
Sampling rate                            : 48.0 kHz
Frame rate                               : 31.250 FPS (1536 SPF)
Compression mode                         : Lossy
Stream size                              : 193 MiB (11%)
Language                                 : English (US)
Service kind                             : Complete Main
Default                                  : Yes
Forced                                   : No

Text #1
ID                                       : 3
Format                                   : UTF-8
Codec ID                                 : S_TEXT/UTF8
Codec ID/Info                            : UTF-8 Plain Text
Duration                                 : 41 min 5 s
Bit rate                                 : 81 b/s
Frame rate                               : 0.329 FPS
Count of elements                        : 812
Stream size                              : 24.6 KiB (0%)
Language                                 : English (US)
Default                                  : No
Forced                                   : No

Text #2
ID                                       : 4
Format                                   : UTF-8
Codec ID                                 : S_TEXT/UTF8
Codec ID/Info                            : UTF-8 Plain Text
Duration                                 : 41 min 58 s
Bit rate                                 : 82 b/s
Frame rate                               : 0.345 FPS
Count of elements                        : 869
Stream size                              : 25.5 KiB (0%)
Title                                    : SDH
Language                                 : English (US)
Default                                  : No
Forced                                   : No



Download
File Container: MKV
Video/Audio Codec: H264 (HIGH) EAC3
Video Resolution: 1280x720

1 Response to "[RR/NF/CU] Law and Order Special Victims Unit S25E05 Zone Rouge 720p AMZN WEB-DL DDP5 1 H 264-NTb (1.7GB)"
02/23/24
18:12:14
ReadyPlayerOne

Thank You

Please Login to post a comment.
If you don't have any account, please Register.
  • Subscribe my Feeds
  • Facebook
Encoding Queue:  x264  x265

Latest Episodes

Popular Movies and TV Shows

  • All You Need Is Death
  • The Dive
  • The Bold and the Beautiful
  • Klaus & Barroso
  • Date a Live
  • The Many Sides of Voice Actor Radio
  • Ghostbusters: Frozen Empire
  • X-Men '97
  • Star Wars: The Bad Batch
  • Under the Bridge
  • The Bricklayer
  • Evil Does Not Exist
  • FBI
  • FBI: International
  • FBI: Most Wanted
  • Godzilla x Kong: The New Empire
  • An American Bombing: The Road to April 19th
  • Immaculate
  • The Cleaning Lady
  • Palm Royale
  • Shogun
  • La marge
  • Dune: Part Two
  • Jimmy Carr: Natural Born Killer
  • NCIS

Recent Comments

  • Bigfishguy:

    There's no free option to download this video. Can someone please upload it to clicknupload?

  • timt:

    Junk

  • timt:

    CAM Audio

  • timt:

    Hard Coded SUMS! Russian, I Think.

  • ubirattan:

    Mandem um Fikper, por favor.

  • kellym2: No answer yet for my query - why all the episodes "server under maintenance" on some episo...
  • Majnon:

    Rapidrar links are dead :(

  • Rake:

    Loads of "Server is under maintenance" with RR theese days...

  • kellym2: Why am I getting "Server is in maintenance mode" on some episodes of a series and not on o...
  • Bud:

    Are you ever going to put up Thursday's episode with Liev Schreiber?

  • alp-engin:

    When will that maintenance be over? Please...

  • mentalityx:

    Rad bloke

Archives