Sign Up   |   Sign In  
ShogunImmaculateSweet DreamsJimmy Carr: Natural Born KillerFriends Like HerThe NeighborhoodNCISNCIS: Hawai'iCtrl+Alt+DesireProject DorothySpring LakesDune: Part TwoAll AmericanFamily GuyThe SympathizerThe 100th: Billy Joel at Madison Square Garden - The Greatest Arena Run of All TimeThe Crow: SalvationHundreds of BeaversTrackerThe Great NorthThe Bold and the BeautifulModel HouseAbba: How They Won EurovisionKurt Cobain: Moments That Shook MusicFallout

Announcements

02/16

2024

No

Comments

Look Around You S01-S02 Complete WEB-DL 540p x264 AAC 2 0-InChY
[RR/NF]
Size: 2.9GB mp4 H264 (HIGH) (AVC1) / AAC (HE-AAC) (MP4A) 960x540 TV Pack

Look Around You
File Information
General
Complete name                            : Look_Around_You_Series_1_-_01._Maths_p00bt6f2_original.mp4
Format                                   : MPEG-4
Format profile                           : Base Media
Codec ID                                 : isom (isom/iso2/avc1/mp41)
File size                                : 108 MiB
Duration                                 : 8 min 44 s
Overall bit rate mode                    : Variable
Overall bit rate                         : 1 735 kb/s
Frame rate                               : 50.000 FPS
Collection                               : Look Around You: Series 1
Album/Performer                          : BBC TV
Part                                     : 1
Part/Position                            : 1
Track name                               : Maths
Track name/Position                      : 1
Grouping                                 : Comedy,Spoof
Performer                                : BBC Two
Composer                                 : BBC iPlayer
Genre                                    : Comedy
ContentType                              : TV Show
Description                              : The basics of mathematics and numerology, including maths in social situations.
Recorded date                            : 2002-10-10 21:50:00+01:00
Tagged date                              : 2024-02-16 09:19:26 UTC
Copyright                                : 2024 BBC (programme data only)
Cover                                    : Yes
TVNetworkName                            : BBC Two
Long Description                         : Short films parodying educational and science programmes from the 1970s and 1980s. 

Video
ID                                       : 1
Format                                   : AVC
Format/Info                              : Advanced Video Codec
Format profile                           : High@L3.1
Format settings                          : CABAC / 4 Ref Frames
Format settings, CABAC                   : Yes
Format settings, Reference frames        : 4 frames
Codec ID                                 : avc1
Codec ID/Info                            : Advanced Video Coding
Duration                                 : 8 min 44 s
Bit rate mode                            : Variable
Bit rate                                 : 1 630 kb/s
Maximum bit rate                         : 2 406 kb/s
Width                                    : 960 pixels
Height                                   : 540 pixels
Display aspect ratio                     : 16:9
Frame rate mode                          : Variable
Frame rate                               : 50.000 FPS
Minimum frame rate                       : 25.000 FPS
Maximum frame rate                       : 90 000.000 FPS
Standard                                 : PAL
Color space                              : YUV
Chroma subsampling                       : 4:2:0
Bit depth                                : 8 bits
Scan type                                : Progressive
Bits/(Pixel*Frame)                       : 0.063
Stream size                              : 102 MiB (94%)
Color range                              : Limited
Color primaries                          : BT.601 PAL
Transfer characteristics                 : BT.470 System B/G
Matrix coefficients                      : BT.470 System B/G
Codec configuration box                  : avcC

Audio
ID                                       : 2
Format                                   : AAC LC SBR
Format/Info                              : Advanced Audio Codec Low Complexity with Spectral Band Replication
Commercial name                          : HE-AAC
Format settings                          : Implicit
Codec ID                                 : mp4a-40-2
Duration                                 : 8 min 44 s
Bit rate mode                            : Variable
Bit rate                                 : 96.0 kb/s
Maximum bit rate                         : 97.8 kb/s
Channel(s)                               : 2 channels
Channel layout                           : L R
Sampling rate                            : 48.0 kHz
Frame rate                               : 23.438 FPS (2048 SPF)
Compression mode                         : Lossy
Stream size                              : 6.00 MiB (6%)
Language                                 : English
Default                                  : Yes
Alternate group                          : 1

Download
File Container: MP4
Video/Audio Codec: H264 (HIGH) (AVC1) AAC (HE-AAC) (MP4A)
Video Resolution: 960x540
Please Login to post a comment.
If you don't have any account, please Register.
  • Subscribe my Feeds
  • Facebook
Encoding Queue:  x264  x265

Latest Episodes

Popular Movies and TV Shows

  • Shogun
  • Immaculate
  • Sweet Dreams
  • Jimmy Carr: Natural Born Killer
  • Friends Like Her
  • The Neighborhood
  • NCIS
  • NCIS: Hawai'i
  • Ctrl+Alt+Desire
  • Project Dorothy
  • Spring Lakes
  • Dune: Part Two
  • All American
  • Family Guy
  • The Sympathizer
  • The 100th: Billy Joel at Madison Square Garden - The Greatest Arena Run of All Time
  • The Crow: Salvation
  • Hundreds of Beavers
  • Tracker
  • The Great North
  • The Bold and the Beautiful
  • Model House
  • Abba: How They Won Eurovision
  • Kurt Cobain: Moments That Shook Music
  • Fallout

Recent Comments

  • kellym2: Why am I getting "Server is in maintenance mode" on some episodes of a series and not on o...
  • Bud:

    Are you ever going to put up Thursday's episode with Liev Schreiber?

  • alp-engin:

    When will that maintenance be over? Please...

  • mentalityx:

    Rad bloke

  • DownloadHostInspector:

    so far these RMTeam uploads always have a working link. DownloadHostInspector approved!

  • DownloadHostInspector:

    ah yes, this upload has a host that works. clicknupload. DownloadHostInspector approved!

  • DownloadHostInspector: Why are all the download hosts trash? none of them let you download it
  • Qua4ratic:

    clicknupload link plz

  • ppoo:

    Please, can you add "Real Time with Bill Maher S22E11" ??

  • theahtisham:

    Kindly upload Ep. 3 and 4 as well.

Archives