Sign Up   |   Sign In  
Mr. BirchumMILF of NorwayGaga Chromatica BallBefore SunsetDarkness of ManMy Adventures with SupermanInterview with the VampireInsomniaSergeant YorkBob Marley: One LoveThe Zone of InterestBeacon 23The RookieWWE Smackdown!Civil WarAtlasFuriosa: A Mad Max SagaStar Trek: DiscoveryWWE NXTRebusThe Fall Guy5lbs of PressureSouth Park: The End of ObesityThe Daily ShowBlue Bloods

Announcements

04/17

2024

1

Comments

Loot S02E04 Mr Congeniality 1080p ATVP WEB-DL DDP5 1 H 264-NTb
[RR/NF]
Size: 2GB mkv H264 (HIGH) / EAC3  HD  1920x960

Loot
File Information
[img]http://lookpic.com/cdn/i2/t/0417202403453421-1.jpg[/img]
[img]http://lookpic.com/cdn/i2/t/0417202403453421-2.jpg[/img]
[img]http://lookpic.com/cdn/i2/t/0417202403453421-3.jpg[/img]

General
Unique ID                                : 335681761454216387179427905385648680360 (0xFC89F4A34FB20670F81990D17BDCEDA8)
Complete name                            : Loot S02E04 Mr Congeniality 1080p ATVP WEB-DL DDP5 1 H 264-NTb.mkv
Format                                   : Matroska
Format version                           : Version 4
File size                                : 2.05 GiB
Duration                                 : 27 min 9 s
Overall bit rate                         : 10.8 Mb/s
Frame rate                               : 23.976 FPS
Writing application                      : mkvmerge v81.0 ('Milliontown') 64-bit
Writing library                          : libebml v1.4.4 + libmatroska v1.7.1

Video
ID                                       : 1
Format                                   : AVC
Format/Info                              : Advanced Video Codec
Format profile                           : High@L4
Format settings                          : CABAC / 4 Ref Frames
Format settings, CABAC                   : Yes
Format settings, Reference frames        : 4 frames
Codec ID                                 : V_MPEG4/ISO/AVC
Duration                                 : 27 min 9 s
Bit rate                                 : 10.0 Mb/s
Width                                    : 1 920 pixels
Height                                   : 960 pixels
Display aspect ratio                     : 2.000
Frame rate mode                          : Constant
Frame rate                               : 23.976 (24000/1001) FPS
Color space                              : YUV
Chroma subsampling                       : 4:2:0
Bit depth                                : 8 bits
Scan type                                : Progressive
Bits/(Pixel*Frame)                       : 0.227
Stream size                              : 1.90 GiB (93%)
Default                                  : Yes
Forced                                   : No
Color range                              : Limited
Color primaries                          : BT.709
Transfer characteristics                 : BT.709
Matrix coefficients                      : BT.709

Audio
ID                                       : 2
Format                                   : E-AC-3 JOC
Format/Info                              : Enhanced AC-3 with Joint Object Coding
Commercial name                          : Dolby Digital Plus with Dolby Atmos
Codec ID                                 : A_EAC3
Duration                                 : 27 min 9 s
Bit rate mode                            : Constant
Bit rate                                 : 768 kb/s
Channel(s)                               : 6 channels
Channel layout                           : L R C LFE Ls Rs
Sampling rate                            : 48.0 kHz
Frame rate                               : 31.250 FPS (1536 SPF)
Compression mode                         : Lossy
Stream size                              : 149 MiB (7%)
Language                                 : English
Service kind                             : Complete Main
Default                                  : Yes
Forced                                   : No
Complexity index                         : 16
Number of dynamic objects                : 15
Bed channel count                        : 1 channel
Bed channel configuration                : LFE

Text #1
ID                                       : 3
Format                                   : UTF-8
Codec ID                                 : S_TEXT/UTF8
Codec ID/Info                            : UTF-8 Plain Text
Duration                                 : 25 min 11 s
Bit rate                                 : 88 b/s
Frame rate                               : 0.285 FPS
Count of elements                        : 431
Stream size                              : 16.4 KiB (0%)
Language                                 : English
Default                                  : No
Forced                                   : No

Text #2
ID                                       : 4
Format                                   : UTF-8
Codec ID                                 : S_TEXT/UTF8
Codec ID/Info                            : UTF-8 Plain Text
Duration                                 : 25 min 46 s
Bit rate                                 : 99 b/s
Frame rate                               : 0.298 FPS
Count of elements                        : 460
Stream size                              : 18.7 KiB (0%)
Title                                    : SDH
Language                                 : English
Default                                  : No
Forced                                   : No

Text #3
ID                                       : 5
Format                                   : UTF-8
Codec ID                                 : S_TEXT/UTF8
Codec ID/Info                            : UTF-8 Plain Text
Duration                                 : 26 min 21 s
Bit rate                                 : 120 b/s
Frame rate                               : 0.278 FPS
Count of elements                        : 439
Stream size                              : 23.3 KiB (0%)
Language                                 : Arabic
Default                                  : No
Forced                                   : No

Text #4
ID                                       : 6
Format                                   : UTF-8
Codec ID                                 : S_TEXT/UTF8
Codec ID/Info                            : UTF-8 Plain Text
Duration                                 : 26 min 21 s
Bit rate                                 : 117 b/s
Frame rate                               : 0.208 FPS
Count of elements                        : 329
Stream size                              : 22.7 KiB (0%)
Language                                 : Bulgarian
Default                                  : No
Forced                                   : No

Text #5
ID                                       : 7
Format                                   : UTF-8
Codec ID                                 : S_TEXT/UTF8
Codec ID/Info                            : UTF-8 Plain Text
Duration                                 : 26 min 21 s
Bit rate                                 : 71 b/s
Frame rate                               : 0.278 FPS
Count of elements                        : 439
Stream size                              : 13.9 KiB (0%)
Title                                    : Chinese (Simplified)
Language                                 : Chinese (Simplified)
Default                                  : No
Forced                                   : No

Text #6
ID                                       : 8
Format                                   : UTF-8
Codec ID                                 : S_TEXT/UTF8
Codec ID/Info                            : UTF-8 Plain Text
Duration                                 : 26 min 21 s
Bit rate                                 : 79 b/s
Frame rate                               : 0.278 FPS
Count of elements                        : 440
Stream size                              : 15.3 KiB (0%)
Title                                    : Chinese (Traditional)
Language                                 : Chinese (Traditional)
Default                                  : No
Forced                                   : No

Text #7
ID                                       : 9
Format                                   : UTF-8
Codec ID                                 : S_TEXT/UTF8
Codec ID/Info                            : UTF-8 Plain Text
Duration                                 : 26 min 21 s
Bit rate                                 : 75 b/s
Frame rate                               : 0.257 FPS
Count of elements                        : 406
Stream size                              : 14.6 KiB (0%)
Language                                 : Czech
Default                                  : No
Forced                                   : No

Text #8
ID                                       : 10
Format                                   : UTF-8
Codec ID                                 : S_TEXT/UTF8
Codec ID/Info                            : UTF-8 Plain Text
Duration                                 : 26 min 21 s
Bit rate                                 : 85 b/s
Frame rate                               : 0.249 FPS
Count of elements                        : 394
Stream size                              : 16.4 KiB (0%)
Language                                 : Danish
Default                                  : No
Forced                                   : No

Text #9
ID                                       : 11
Format                                   : UTF-8
Codec ID                                 : S_TEXT/UTF8
Codec ID/Info                            : UTF-8 Plain Text
Duration                                 : 25 min 38 s
Bit rate                                 : 80 b/s
Frame rate                               : 0.267 FPS
Count of elements                        : 410
Stream size                              : 15.1 KiB (0%)
Language                                 : German
Default                                  : No
Forced                                   : No

Text #10
ID                                       : 12
Format                                   : UTF-8
Codec ID                                 : S_TEXT/UTF8
Codec ID/Info                            : UTF-8 Plain Text
Duration                                 : 26 min 21 s
Bit rate                                 : 134 b/s
Frame rate                               : 0.271 FPS
Count of elements                        : 428
Stream size                              : 25.9 KiB (0%)
Language                                 : Greek
Default                                  : No
Forced                                   : No

Text #11
ID                                       : 13
Format                                   : UTF-8
Codec ID                                 : S_TEXT/UTF8
Codec ID/Info                            : UTF-8 Plain Text
Duration                                 : 26 min 21 s
Bit rate                                 : 85 b/s
Frame rate                               : 0.278 FPS
Count of elements                        : 439
Stream size                              : 16.5 KiB (0%)
Title                                    : Spanish (Latin America)
Language                                 : Spanish (Latin America)
Default                                  : No
Forced                                   : No

Text #12
ID                                       : 14
Format                                   : UTF-8
Codec ID                                 : S_TEXT/UTF8
Codec ID/Info                            : UTF-8 Plain Text
Duration                                 : 26 min 21 s
Bit rate                                 : 87 b/s
Frame rate                               : 0.274 FPS
Count of elements                        : 433
Stream size                              : 16.8 KiB (0%)
Title                                    : Spanish (Spain)
Language                                 : Spanish (ES)
Default                                  : No
Forced                                   : No

Text #13
ID                                       : 15
Format                                   : UTF-8
Codec ID                                 : S_TEXT/UTF8
Codec ID/Info                            : UTF-8 Plain Text
Duration                                 : 26 min 21 s
Bit rate                                 : 78 b/s
Frame rate                               : 0.249 FPS
Count of elements                        : 394
Stream size                              : 15.2 KiB (0%)
Language                                 : Estonian
Default                                  : No
Forced                                   : No

Text #14
ID                                       : 16
Format                                   : UTF-8
Codec ID                                 : S_TEXT/UTF8
Codec ID/Info                            : UTF-8 Plain Text
Duration                                 : 26 min 21 s
Bit rate                                 : 78 b/s
Frame rate                               : 0.243 FPS
Count of elements                        : 385
Stream size                              : 15.1 KiB (0%)
Language                                 : Finnish
Default                                  : No
Forced                                   : No

Text #15
ID                                       : 17
Format                                   : UTF-8
Codec ID                                 : S_TEXT/UTF8
Codec ID/Info                            : UTF-8 Plain Text
Duration                                 : 25 min 47 s
Bit rate                                 : 73 b/s
Frame rate                               : 0.271 FPS
Count of elements                        : 419
Stream size                              : 14.0 KiB (0%)
Title                                    : French (Canada)
Language                                 : French (CA)
Default                                  : No
Forced                                   : No

Text #16
ID                                       : 18
Format                                   : UTF-8
Codec ID                                 : S_TEXT/UTF8
Codec ID/Info                            : UTF-8 Plain Text
Duration                                 : 25 min 47 s
Bit rate                                 : 73 b/s
Frame rate                               : 0.270 FPS
Count of elements                        : 418
Stream size                              : 14.0 KiB (0%)
Title                                    : French (France)
Language                                 : French (FR)
Default                                  : No
Forced                                   : No

Text #17
ID                                       : 19
Format                                   : UTF-8
Codec ID                                 : S_TEXT/UTF8
Codec ID/Info                            : UTF-8 Plain Text
Duration                                 : 26 min 21 s
Bit rate                                 : 115 b/s
Frame rate                               : 0.278 FPS
Count of elements                        : 439
Stream size                              : 22.3 KiB (0%)
Language                                 : Hebrew
Default                                  : No
Forced                                   : No

Text #18
ID                                       : 20
Format                                   : UTF-8
Codec ID                                 : S_TEXT/UTF8
Codec ID/Info                            : UTF-8 Plain Text
Duration                                 : 26 min 21 s
Bit rate                                 : 228 b/s
Frame rate                               : 0.278 FPS
Count of elements                        : 440
Stream size                              : 44.2 KiB (0%)
Language                                 : Hindi
Default                                  : No
Forced                                   : No

Text #19
ID                                       : 21
Format                                   : UTF-8
Codec ID                                 : S_TEXT/UTF8
Codec ID/Info                            : UTF-8 Plain Text
Duration                                 : 26 min 21 s
Bit rate                                 : 88 b/s
Frame rate                               : 0.277 FPS
Count of elements                        : 438
Stream size                              : 17.1 KiB (0%)
Language                                 : Hungarian
Default                                  : No
Forced                                   : No

Text #20
ID                                       : 22
Format                                   : UTF-8
Codec ID                                 : S_TEXT/UTF8
Codec ID/Info                            : UTF-8 Plain Text
Duration                                 : 26 min 21 s
Bit rate                                 : 88 b/s
Frame rate                               : 0.276 FPS
Count of elements                        : 437
Stream size                              : 17.1 KiB (0%)
Language                                 : Indonesian
Default                                  : No
Forced                                   : No

Text #21
ID                                       : 23
Format                                   : UTF-8
Codec ID                                 : S_TEXT/UTF8
Codec ID/Info                            : UTF-8 Plain Text
Duration                                 : 26 min 12 s
Bit rate                                 : 91 b/s
Frame rate                               : 0.281 FPS
Count of elements                        : 442
Stream size                              : 17.5 KiB (0%)
Language                                 : Italian
Default                                  : No
Forced                                   : No

Text #22
ID                                       : 24
Format                                   : UTF-8
Codec ID                                 : S_TEXT/UTF8
Codec ID/Info                            : UTF-8 Plain Text
Duration                                 : 26 min 27 s
Bit rate                                 : 69 b/s
Frame rate                               : 0.276 FPS
Count of elements                        : 439
Stream size                              : 13.4 KiB (0%)
Language                                 : Japanese
Default                                  : No
Forced                                   : No

Text #23
ID                                       : 25
Format                                   : UTF-8
Codec ID                                 : S_TEXT/UTF8
Codec ID/Info                            : UTF-8 Plain Text
Duration                                 : 26 min 21 s
Bit rate                                 : 95 b/s
Frame rate                               : 0.278 FPS
Count of elements                        : 440
Stream size                              : 18.5 KiB (0%)
Language                                 : Korean
Default                                  : No
Forced                                   : No

Text #24
ID                                       : 26
Format                                   : UTF-8
Codec ID                                 : S_TEXT/UTF8
Codec ID/Info                            : UTF-8 Plain Text
Duration                                 : 26 min 21 s
Bit rate                                 : 86 b/s
Frame rate                               : 0.277 FPS
Count of elements                        : 438
Stream size                              : 16.7 KiB (0%)
Language                                 : Lithuanian
Default                                  : No
Forced                                   : No

Text #25
ID                                       : 27
Format                                   : UTF-8
Codec ID                                 : S_TEXT/UTF8
Codec ID/Info                            : UTF-8 Plain Text
Duration                                 : 26 min 21 s
Bit rate                                 : 86 b/s
Frame rate                               : 0.275 FPS
Count of elements                        : 435
Stream size                              : 16.7 KiB (0%)
Language                                 : Latvian
Default                                  : No
Forced                                   : No

Text #26
ID                                       : 28
Format                                   : UTF-8
Codec ID                                 : S_TEXT/UTF8
Codec ID/Info                            : UTF-8 Plain Text
Duration                                 : 26 min 21 s
Bit rate                                 : 80 b/s
Frame rate                               : 0.277 FPS
Count of elements                        : 438
Stream size                              : 15.6 KiB (0%)
Language                                 : Malay
Default                                  : No
Forced                                   : No

Text #27
ID                                       : 29
Format                                   : UTF-8
Codec ID                                 : S_TEXT/UTF8
Codec ID/Info                            : UTF-8 Plain Text
Duration                                 : 26 min 21 s
Bit rate                                 : 72 b/s
Frame rate                               : 0.203 FPS
Count of elements                        : 321
Stream size                              : 14.1 KiB (0%)
Language                                 : Dutch
Default                                  : No
Forced                                   : No

Text #28
ID                                       : 30
Format                                   : UTF-8
Codec ID                                 : S_TEXT/UTF8
Codec ID/Info                            : UTF-8 Plain Text
Duration                                 : 26 min 21 s
Bit rate                                 : 77 b/s
Frame rate                               : 0.213 FPS
Count of elements                        : 337
Stream size                              : 15.0 KiB (0%)
Language                                 : Norwegian
Default                                  : No
Forced                                   : No

Text #29
ID                                       : 31
Format                                   : UTF-8
Codec ID                                 : S_TEXT/UTF8
Codec ID/Info                            : UTF-8 Plain Text
Duration                                 : 26 min 21 s
Bit rate                                 : 80 b/s
Frame rate                               : 0.275 FPS
Count of elements                        : 435
Stream size                              : 15.6 KiB (0%)
Language                                 : Polish
Default                                  : No
Forced                                   : No

Text #30
ID                                       : 32
Format                                   : UTF-8
Codec ID                                 : S_TEXT/UTF8
Codec ID/Info                            : UTF-8 Plain Text
Duration                                 : 26 min 21 s
Bit rate                                 : 77 b/s
Frame rate                               : 0.269 FPS
Count of elements                        : 426
Stream size                              : 15.0 KiB (0%)
Title                                    : Portuguese
Language                                 : Portuguese
Default                                  : No
Forced                                   : No

Text #31
ID                                       : 33
Format                                   : UTF-8
Codec ID                                 : S_TEXT/UTF8
Codec ID/Info                            : UTF-8 Plain Text
Duration                                 : 26 min 21 s
Bit rate                                 : 80 b/s
Frame rate                               : 0.262 FPS
Count of elements                        : 414
Stream size                              : 15.5 KiB (0%)
Title                                    : Portuguese (Brazil)
Language                                 : Portuguese (BR)
Default                                  : No
Forced                                   : No

Text #32
ID                                       : 34
Format                                   : UTF-8
Codec ID                                 : S_TEXT/UTF8
Codec ID/Info                            : UTF-8 Plain Text
Duration                                 : 26 min 21 s
Bit rate                                 : 125 b/s
Frame rate                               : 0.272 FPS
Count of elements                        : 431
Stream size                              : 24.2 KiB (0%)
Language                                 : Russian
Default                                  : No
Forced                                   : No

Text #33
ID                                       : 35
Format                                   : UTF-8
Codec ID                                 : S_TEXT/UTF8
Codec ID/Info                            : UTF-8 Plain Text
Duration                                 : 26 min 21 s
Bit rate                                 : 79 b/s
Frame rate                               : 0.276 FPS
Count of elements                        : 436
Stream size                              : 15.4 KiB (0%)
Language                                 : Slovak
Default                                  : No
Forced                                   : No

Text #34
ID                                       : 36
Format                                   : UTF-8
Codec ID                                 : S_TEXT/UTF8
Codec ID/Info                            : UTF-8 Plain Text
Duration                                 : 26 min 21 s
Bit rate                                 : 66 b/s
Frame rate                               : 0.269 FPS
Count of elements                        : 426
Stream size                              : 12.8 KiB (0%)
Language                                 : Slovenian
Default                                  : No
Forced                                   : No

Text #35
ID                                       : 37
Format                                   : UTF-8
Codec ID                                 : S_TEXT/UTF8
Codec ID/Info                            : UTF-8 Plain Text
Duration                                 : 26 min 21 s
Bit rate                                 : 76 b/s
Frame rate                               : 0.236 FPS
Count of elements                        : 374
Stream size                              : 14.9 KiB (0%)
Language                                 : Swedish
Default                                  : No
Forced                                   : No

Text #36
ID                                       : 38
Format                                   : UTF-8
Codec ID                                 : S_TEXT/UTF8
Codec ID/Info                            : UTF-8 Plain Text
Duration                                 : 26 min 21 s
Bit rate                                 : 269 b/s
Frame rate                               : 0.278 FPS
Count of elements                        : 439
Stream size                              : 52.0 KiB (0%)
Language                                 : Tamil
Default                                  : No
Forced                                   : No

Text #37
ID                                       : 39
Format                                   : UTF-8
Codec ID                                 : S_TEXT/UTF8
Codec ID/Info                            : UTF-8 Plain Text
Duration                                 : 26 min 21 s
Bit rate                                 : 252 b/s
Frame rate                               : 0.278 FPS
Count of elements                        : 439
Stream size                              : 48.8 KiB (0%)
Language                                 : Telugu
Default                                  : No
Forced                                   : No

Text #38
ID                                       : 40
Format                                   : UTF-8
Codec ID                                 : S_TEXT/UTF8
Codec ID/Info                            : UTF-8 Plain Text
Duration                                 : 26 min 21 s
Bit rate                                 : 208 b/s
Frame rate                               : 0.278 FPS
Count of elements                        : 439
Stream size                              : 40.2 KiB (0%)
Language                                 : Thai
Default                                  : No
Forced                                   : No

Text #39
ID                                       : 41
Format                                   : UTF-8
Codec ID                                 : S_TEXT/UTF8
Codec ID/Info                            : UTF-8 Plain Text
Duration                                 : 26 min 21 s
Bit rate                                 : 84 b/s
Frame rate                               : 0.269 FPS
Count of elements                        : 425
Stream size                              : 16.3 KiB (0%)
Language                                 : Turkish
Default                                  : No
Forced                                   : No

Text #40
ID                                       : 42
Format                                   : UTF-8
Codec ID                                 : S_TEXT/UTF8
Codec ID/Info                            : UTF-8 Plain Text
Duration                                 : 26 min 21 s
Bit rate                                 : 123 b/s
Frame rate                               : 0.278 FPS
Count of elements                        : 440
Stream size                              : 23.9 KiB (0%)
Language                                 : Ukrainian
Default                                  : No
Forced                                   : No

Text #41
ID                                       : 43
Format                                   : UTF-8
Codec ID                                 : S_TEXT/UTF8
Codec ID/Info                            : UTF-8 Plain Text
Duration                                 : 26 min 21 s
Bit rate                                 : 105 b/s
Frame rate                               : 0.278 FPS
Count of elements                        : 440
Stream size                              : 20.3 KiB (0%)
Language                                 : Vietnamese
Default                                  : No
Forced                                   : No

Text #42
ID                                       : 44
Format                                   : UTF-8
Codec ID                                 : S_TEXT/UTF8
Codec ID/Info                            : UTF-8 Plain Text
Duration                                 : 26 min 21 s
Bit rate                                 : 66 b/s
Frame rate                               : 0.278 FPS
Count of elements                        : 440
Stream size                              : 12.9 KiB (0%)
Title                                    : Chinese (Traditional)
Language                                 : Chinese (Traditional)
Default                                  : No
Forced                                   : No

Menu
00:00:00.000                             : en:Chapter 1
00:01:53.666                             : en:Intro
00:02:30.041                             : en:Chapter 2



Download
File Container: MKV
Video/Audio Codec: H264 (HIGH) EAC3
Video Resolution: 1920x960

1 Response to "[RR/NF] Loot S02E04 Mr Congeniality 1080p ATVP WEB-DL DDP5 1 H 264-NTb (2GB)"
04/17/24
05:10:49
ReadyPlayerOne

Thank you!

Please Login to post a comment.
If you don't have any account, please Register.
  • Subscribe my Feeds
  • Facebook
Encoding Queue:  x264  x265

Latest Episodes

Popular Movies and TV Shows

  • Mr. Birchum
  • MILF of Norway
  • Gaga Chromatica Ball
  • Before Sunset
  • Darkness of Man
  • My Adventures with Superman
  • Interview with the Vampire
  • Insomnia
  • Sergeant York
  • Bob Marley: One Love
  • The Zone of Interest
  • Beacon 23
  • The Rookie
  • WWE Smackdown!
  • Civil War
  • Atlas
  • Furiosa: A Mad Max Saga
  • Star Trek: Discovery
  • WWE NXT
  • Rebus
  • The Fall Guy
  • 5lbs of Pressure
  • South Park: The End of Obesity
  • The Daily Show
  • Blue Bloods

Recent Comments

  • Rafi85: Hi thx for the 14th season. Is it possible to reupload some episodes plz they were removed. These ar...
  • KubrickFan:

    Any possibility of a fresh link for this?

  • GubeShitemon: This is a different movie to the artwork version. Not the Dylan McDermott film but the Ben Affleck f...
  • Wrapt: Hahahaha yeah right make a liar out of me but I was referring to comments made about a movie or an e...
  • Wrapt: Comments are not always appearing in the Recent Comments list after submitting a comment any reason ...
  • waanaabe:

    warning: speaks German Swedish and French for those without English subs...

  • spiker1961:

    The audio on this is a commentary track, not the actual film audio.

  • spiker1961:

    The audio on this is a commentary track, not the film audio.

  • DuranDuran: The MS PAT show - - Does anyone have BOTH the MS PAT show (SEASON 4) & (SEASON 3) that just cam...
  • newuser:

    need english subtitles

  • Demonz:

    WTH is this

    NO season info and parts 1-13

  • meyat74:

    please add if possible new episodes 5-6

  • DuranDuran: THE MS PAT show = Does anyone have BOTH the MS PAT show (SEASON 3)-and- (SEASON 4) that just came ou...
  • big_ralphie: Just sitting down to watch and, yes there are subtitles...in ITALIAN ONLY. ENGLISH subs might be hel...
  • Geependo:

    All links are dead

Archives