Sign Up   |   Sign In  
The PrimevalsBrick MansionsThe Artifice GirlAll RiseViral HitThe 11th HourThe AcolyteDark MatterPresumed InnocentNinja TerminatorMysteries of the Terracotta WarriorsHow Music Got FreeWWE NXTThe Big Door PrizeTryingLost SoulzThe Beast in the JunglePet SemataryThe Loud HouseAcapulcoThe Bold and the BeautifulWild Eyed and WickedPeggy Sue Got MarriedFrom Russia with LoveThe Daily Show

Announcements

05/23

2024

2

Comments

Loot S02E09 Mood Vibrations 1080p ATVP WEB-DL DDP5 1 H 264-NTb
[RR/NF]
Size: 2.2GB mkv H264 (HIGH) / EAC3  HD  1920x960

Loot
File Information
[img]http://lookpic.com/cdn/i2/t/0523202400453528-1.jpg[/img]
[img]http://lookpic.com/cdn/i2/t/0523202400453528-2.jpg[/img]
[img]http://lookpic.com/cdn/i2/t/0523202400453528-3.jpg[/img]

General
Unique ID                                : 327619284303973085398241949603649960640 (0xF6792DD2F138FB5AB64E3BA3A0B23AC0)
Complete name                            : Loot S02E09 Mood Vibrations 1080p ATVP WEB-DL DDP5 1 H 264-NTb.mkv
Format                                   : Matroska
Format version                           : Version 4
File size                                : 2.16 GiB
Duration                                 : 29 min 2 s
Overall bit rate                         : 10.6 Mb/s
Frame rate                               : 23.976 FPS
Writing application                      : mkvmerge v84.0 ('Sleeper') 64-bit
Writing library                          : libebml v1.4.5 + libmatroska v1.7.1

Video
ID                                       : 1
Format                                   : AVC
Format/Info                              : Advanced Video Codec
Format profile                           : High@L4
Format settings                          : CABAC / 4 Ref Frames
Format settings, CABAC                   : Yes
Format settings, Reference frames        : 4 frames
Codec ID                                 : V_MPEG4/ISO/AVC
Duration                                 : 29 min 2 s
Bit rate                                 : 9 849 kb/s
Width                                    : 1 920 pixels
Height                                   : 960 pixels
Display aspect ratio                     : 2.000
Frame rate mode                          : Constant
Frame rate                               : 23.976 (24000/1001) FPS
Color space                              : YUV
Chroma subsampling                       : 4:2:0
Bit depth                                : 8 bits
Scan type                                : Progressive
Bits/(Pixel*Frame)                       : 0.223
Stream size                              : 2.00 GiB (93%)
Default                                  : Yes
Forced                                   : No
Color range                              : Limited
Color primaries                          : BT.709
Transfer characteristics                 : BT.709
Matrix coefficients                      : BT.709

Audio
ID                                       : 2
Format                                   : E-AC-3 JOC
Format/Info                              : Enhanced AC-3 with Joint Object Coding
Commercial name                          : Dolby Digital Plus with Dolby Atmos
Codec ID                                 : A_EAC3
Duration                                 : 29 min 2 s
Bit rate mode                            : Constant
Bit rate                                 : 768 kb/s
Channel(s)                               : 6 channels
Channel layout                           : L R C LFE Ls Rs
Sampling rate                            : 48.0 kHz
Frame rate                               : 31.250 FPS (1536 SPF)
Compression mode                         : Lossy
Stream size                              : 160 MiB (7%)
Language                                 : English
Service kind                             : Complete Main
Default                                  : Yes
Forced                                   : No
Complexity index                         : 16
Number of dynamic objects                : 15
Bed channel count                        : 1 channel
Bed channel configuration                : LFE

Text #1
ID                                       : 3
Format                                   : UTF-8
Codec ID                                 : S_TEXT/UTF8
Codec ID/Info                            : UTF-8 Plain Text
Duration                                 : 27 min 28 s
Bit rate                                 : 88 b/s
Frame rate                               : 0.297 FPS
Count of elements                        : 490
Stream size                              : 17.7 KiB (0%)
Language                                 : English
Default                                  : No
Forced                                   : No

Text #2
ID                                       : 4
Format                                   : UTF-8
Codec ID                                 : S_TEXT/UTF8
Codec ID/Info                            : UTF-8 Plain Text
Duration                                 : 27 min 49 s
Bit rate                                 : 98 b/s
Frame rate                               : 0.325 FPS
Count of elements                        : 542
Stream size                              : 20.1 KiB (0%)
Title                                    : SDH
Language                                 : English
Default                                  : No
Forced                                   : No

Text #3
ID                                       : 5
Format                                   : UTF-8
Codec ID                                 : S_TEXT/UTF8
Codec ID/Info                            : UTF-8 Plain Text
Duration                                 : 28 min 23 s
Bit rate                                 : 119 b/s
Frame rate                               : 0.295 FPS
Count of elements                        : 503
Stream size                              : 24.9 KiB (0%)
Language                                 : Arabic
Default                                  : No
Forced                                   : No

Text #4
ID                                       : 6
Format                                   : UTF-8
Codec ID                                 : S_TEXT/UTF8
Codec ID/Info                            : UTF-8 Plain Text
Duration                                 : 28 min 23 s
Bit rate                                 : 110 b/s
Frame rate                               : 0.229 FPS
Count of elements                        : 390
Stream size                              : 22.9 KiB (0%)
Language                                 : Bulgarian
Default                                  : No
Forced                                   : No

Text #5
ID                                       : 7
Format                                   : UTF-8
Codec ID                                 : S_TEXT/UTF8
Codec ID/Info                            : UTF-8 Plain Text
Duration                                 : 28 min 23 s
Bit rate                                 : 72 b/s
Frame rate                               : 0.295 FPS
Count of elements                        : 503
Stream size                              : 15.0 KiB (0%)
Title                                    : Chinese (Simplified)
Language                                 : Mandarin (Hans)
Default                                  : No
Forced                                   : No

Text #6
ID                                       : 8
Format                                   : UTF-8
Codec ID                                 : S_TEXT/UTF8
Codec ID/Info                            : UTF-8 Plain Text
Duration                                 : 28 min 23 s
Bit rate                                 : 75 b/s
Frame rate                               : 0.295 FPS
Count of elements                        : 503
Stream size                              : 15.8 KiB (0%)
Title                                    : Chinese (Traditional)
Language                                 : Mandarin (Hant)
Default                                  : No
Forced                                   : No

Text #7
ID                                       : 9
Format                                   : UTF-8
Codec ID                                 : S_TEXT/UTF8
Codec ID/Info                            : UTF-8 Plain Text
Duration                                 : 28 min 23 s
Bit rate                                 : 72 b/s
Frame rate                               : 0.280 FPS
Count of elements                        : 477
Stream size                              : 15.1 KiB (0%)
Language                                 : Czech
Default                                  : No
Forced                                   : No

Text #8
ID                                       : 10
Format                                   : UTF-8
Codec ID                                 : S_TEXT/UTF8
Codec ID/Info                            : UTF-8 Plain Text
Duration                                 : 28 min 23 s
Bit rate                                 : 71 b/s
Frame rate                               : 0.224 FPS
Count of elements                        : 381
Stream size                              : 14.9 KiB (0%)
Language                                 : Danish
Default                                  : No
Forced                                   : No

Text #9
ID                                       : 11
Format                                   : UTF-8
Codec ID                                 : S_TEXT/UTF8
Codec ID/Info                            : UTF-8 Plain Text
Duration                                 : 28 min 7 s
Bit rate                                 : 74 b/s
Frame rate                               : 0.267 FPS
Count of elements                        : 451
Stream size                              : 15.3 KiB (0%)
Language                                 : German
Default                                  : No
Forced                                   : No

Text #10
ID                                       : 12
Format                                   : UTF-8
Codec ID                                 : S_TEXT/UTF8
Codec ID/Info                            : UTF-8 Plain Text
Duration                                 : 28 min 23 s
Bit rate                                 : 132 b/s
Frame rate                               : 0.270 FPS
Count of elements                        : 460
Stream size                              : 27.6 KiB (0%)
Language                                 : Greek
Default                                  : No
Forced                                   : No

Text #11
ID                                       : 13
Format                                   : UTF-8
Codec ID                                 : S_TEXT/UTF8
Codec ID/Info                            : UTF-8 Plain Text
Duration                                 : 28 min 23 s
Bit rate                                 : 80 b/s
Frame rate                               : 0.292 FPS
Count of elements                        : 498
Stream size                              : 16.8 KiB (0%)
Title                                    : Spanish (Latin America)
Language                                 : Spanish (Latin America)
Default                                  : No
Forced                                   : No

Text #12
ID                                       : 14
Format                                   : UTF-8
Codec ID                                 : S_TEXT/UTF8
Codec ID/Info                            : UTF-8 Plain Text
Duration                                 : 28 min 23 s
Bit rate                                 : 86 b/s
Frame rate                               : 0.284 FPS
Count of elements                        : 484
Stream size                              : 18.1 KiB (0%)
Title                                    : Spanish (Spain)
Language                                 : Spanish (ES)
Default                                  : No
Forced                                   : No

Text #13
ID                                       : 15
Format                                   : UTF-8
Codec ID                                 : S_TEXT/UTF8
Codec ID/Info                            : UTF-8 Plain Text
Duration                                 : 28 min 23 s
Bit rate                                 : 76 b/s
Frame rate                               : 0.274 FPS
Count of elements                        : 466
Stream size                              : 16.0 KiB (0%)
Language                                 : Estonian
Default                                  : No
Forced                                   : No

Text #14
ID                                       : 16
Format                                   : UTF-8
Codec ID                                 : S_TEXT/UTF8
Codec ID/Info                            : UTF-8 Plain Text
Duration                                 : 28 min 23 s
Bit rate                                 : 75 b/s
Frame rate                               : 0.271 FPS
Count of elements                        : 461
Stream size                              : 15.8 KiB (0%)
Language                                 : Finnish
Default                                  : No
Forced                                   : No

Text #15
ID                                       : 17
Format                                   : UTF-8
Codec ID                                 : S_TEXT/UTF8
Codec ID/Info                            : UTF-8 Plain Text
Duration                                 : 28 min 27 s
Bit rate                                 : 71 b/s
Frame rate                               : 0.282 FPS
Count of elements                        : 481
Stream size                              : 14.8 KiB (0%)
Title                                    : French (Canada)
Language                                 : French (CA)
Default                                  : No
Forced                                   : No

Text #16
ID                                       : 18
Format                                   : UTF-8
Codec ID                                 : S_TEXT/UTF8
Codec ID/Info                            : UTF-8 Plain Text
Duration                                 : 28 min 27 s
Bit rate                                 : 71 b/s
Frame rate                               : 0.281 FPS
Count of elements                        : 480
Stream size                              : 14.8 KiB (0%)
Title                                    : French (France)
Language                                 : French (FR)
Default                                  : No
Forced                                   : No

Text #17
ID                                       : 19
Format                                   : UTF-8
Codec ID                                 : S_TEXT/UTF8
Codec ID/Info                            : UTF-8 Plain Text
Duration                                 : 28 min 23 s
Bit rate                                 : 115 b/s
Frame rate                               : 0.295 FPS
Count of elements                        : 503
Stream size                              : 23.9 KiB (0%)
Language                                 : Hebrew
Default                                  : No
Forced                                   : No

Text #18
ID                                       : 20
Format                                   : UTF-8
Codec ID                                 : S_TEXT/UTF8
Codec ID/Info                            : UTF-8 Plain Text
Duration                                 : 28 min 23 s
Bit rate                                 : 227 b/s
Frame rate                               : 0.296 FPS
Count of elements                        : 504
Stream size                              : 47.2 KiB (0%)
Language                                 : Hindi
Default                                  : No
Forced                                   : No

Text #19
ID                                       : 21
Format                                   : UTF-8
Codec ID                                 : S_TEXT/UTF8
Codec ID/Info                            : UTF-8 Plain Text
Duration                                 : 28 min 23 s
Bit rate                                 : 86 b/s
Frame rate                               : 0.296 FPS
Count of elements                        : 504
Stream size                              : 18.0 KiB (0%)
Language                                 : Hungarian
Default                                  : No
Forced                                   : No

Text #20
ID                                       : 22
Format                                   : UTF-8
Codec ID                                 : S_TEXT/UTF8
Codec ID/Info                            : UTF-8 Plain Text
Duration                                 : 28 min 23 s
Bit rate                                 : 79 b/s
Frame rate                               : 0.294 FPS
Count of elements                        : 501
Stream size                              : 16.6 KiB (0%)
Language                                 : Indonesian
Default                                  : No
Forced                                   : No

Text #21
ID                                       : 23
Format                                   : UTF-8
Codec ID                                 : S_TEXT/UTF8
Codec ID/Info                            : UTF-8 Plain Text
Duration                                 : 28 min 11 s
Bit rate                                 : 75 b/s
Frame rate                               : 0.277 FPS
Count of elements                        : 469
Stream size                              : 15.6 KiB (0%)
Language                                 : Italian
Default                                  : No
Forced                                   : No

Text #22
ID                                       : 24
Format                                   : UTF-8
Codec ID                                 : S_TEXT/UTF8
Codec ID/Info                            : UTF-8 Plain Text
Duration                                 : 28 min 29 s
Bit rate                                 : 65 b/s
Frame rate                               : 0.284 FPS
Count of elements                        : 486
Stream size                              : 13.7 KiB (0%)
Language                                 : Japanese
Default                                  : No
Forced                                   : No

Text #23
ID                                       : 25
Format                                   : UTF-8
Codec ID                                 : S_TEXT/UTF8
Codec ID/Info                            : UTF-8 Plain Text
Duration                                 : 28 min 23 s
Bit rate                                 : 85 b/s
Frame rate                               : 0.295 FPS
Count of elements                        : 502
Stream size                              : 17.7 KiB (0%)
Language                                 : Korean
Default                                  : No
Forced                                   : No

Text #24
ID                                       : 26
Format                                   : UTF-8
Codec ID                                 : S_TEXT/UTF8
Codec ID/Info                            : UTF-8 Plain Text
Duration                                 : 28 min 23 s
Bit rate                                 : 84 b/s
Frame rate                               : 0.295 FPS
Count of elements                        : 502
Stream size                              : 17.6 KiB (0%)
Language                                 : Lithuanian
Default                                  : No
Forced                                   : No

Text #25
ID                                       : 27
Format                                   : UTF-8
Codec ID                                 : S_TEXT/UTF8
Codec ID/Info                            : UTF-8 Plain Text
Duration                                 : 28 min 23 s
Bit rate                                 : 85 b/s
Frame rate                               : 0.290 FPS
Count of elements                        : 494
Stream size                              : 17.8 KiB (0%)
Language                                 : Latvian
Default                                  : No
Forced                                   : No

Text #26
ID                                       : 28
Format                                   : UTF-8
Codec ID                                 : S_TEXT/UTF8
Codec ID/Info                            : UTF-8 Plain Text
Duration                                 : 28 min 23 s
Bit rate                                 : 81 b/s
Frame rate                               : 0.294 FPS
Count of elements                        : 501
Stream size                              : 16.9 KiB (0%)
Language                                 : Malay
Default                                  : No
Forced                                   : No

Text #27
ID                                       : 29
Format                                   : UTF-8
Codec ID                                 : S_TEXT/UTF8
Codec ID/Info                            : UTF-8 Plain Text
Duration                                 : 28 min 23 s
Bit rate                                 : 68 b/s
Frame rate                               : 0.210 FPS
Count of elements                        : 358
Stream size                              : 14.2 KiB (0%)
Language                                 : Dutch
Default                                  : No
Forced                                   : No

Text #28
ID                                       : 30
Format                                   : UTF-8
Codec ID                                 : S_TEXT/UTF8
Codec ID/Info                            : UTF-8 Plain Text
Duration                                 : 28 min 23 s
Bit rate                                 : 76 b/s
Frame rate                               : 0.237 FPS
Count of elements                        : 403
Stream size                              : 15.9 KiB (0%)
Language                                 : Norwegian
Default                                  : No
Forced                                   : No

Text #29
ID                                       : 31
Format                                   : UTF-8
Codec ID                                 : S_TEXT/UTF8
Codec ID/Info                            : UTF-8 Plain Text
Duration                                 : 28 min 23 s
Bit rate                                 : 79 b/s
Frame rate                               : 0.293 FPS
Count of elements                        : 499
Stream size                              : 16.5 KiB (0%)
Language                                 : Polish
Default                                  : No
Forced                                   : No

Text #30
ID                                       : 32
Format                                   : UTF-8
Codec ID                                 : S_TEXT/UTF8
Codec ID/Info                            : UTF-8 Plain Text
Duration                                 : 28 min 23 s
Bit rate                                 : 76 b/s
Frame rate                               : 0.288 FPS
Count of elements                        : 490
Stream size                              : 15.9 KiB (0%)
Title                                    : Portuguese
Language                                 : Portuguese
Default                                  : No
Forced                                   : No

Text #31
ID                                       : 33
Format                                   : UTF-8
Codec ID                                 : S_TEXT/UTF8
Codec ID/Info                            : UTF-8 Plain Text
Duration                                 : 28 min 23 s
Bit rate                                 : 77 b/s
Frame rate                               : 0.284 FPS
Count of elements                        : 484
Stream size                              : 16.2 KiB (0%)
Title                                    : Portuguese (Brazil)
Language                                 : Portuguese (BR)
Default                                  : No
Forced                                   : No

Text #32
ID                                       : 34
Format                                   : UTF-8
Codec ID                                 : S_TEXT/UTF8
Codec ID/Info                            : UTF-8 Plain Text
Duration                                 : 28 min 23 s
Bit rate                                 : 121 b/s
Frame rate                               : 0.285 FPS
Count of elements                        : 485
Stream size                              : 25.2 KiB (0%)
Language                                 : Russian
Default                                  : No
Forced                                   : No

Text #33
ID                                       : 35
Format                                   : UTF-8
Codec ID                                 : S_TEXT/UTF8
Codec ID/Info                            : UTF-8 Plain Text
Duration                                 : 28 min 23 s
Bit rate                                 : 78 b/s
Frame rate                               : 0.291 FPS
Count of elements                        : 495
Stream size                              : 16.4 KiB (0%)
Language                                 : Slovak
Default                                  : No
Forced                                   : No

Text #34
ID                                       : 36
Format                                   : UTF-8
Codec ID                                 : S_TEXT/UTF8
Codec ID/Info                            : UTF-8 Plain Text
Duration                                 : 28 min 23 s
Bit rate                                 : 63 b/s
Frame rate                               : 0.231 FPS
Count of elements                        : 393
Stream size                              : 13.3 KiB (0%)
Language                                 : Slovenian
Default                                  : No
Forced                                   : No

Text #35
ID                                       : 37
Format                                   : UTF-8
Codec ID                                 : S_TEXT/UTF8
Codec ID/Info                            : UTF-8 Plain Text
Duration                                 : 28 min 23 s
Bit rate                                 : 73 b/s
Frame rate                               : 0.224 FPS
Count of elements                        : 382
Stream size                              : 15.2 KiB (0%)
Language                                 : Swedish
Default                                  : No
Forced                                   : No

Text #36
ID                                       : 38
Format                                   : UTF-8
Codec ID                                 : S_TEXT/UTF8
Codec ID/Info                            : UTF-8 Plain Text
Duration                                 : 28 min 23 s
Bit rate                                 : 264 b/s
Frame rate                               : 0.295 FPS
Count of elements                        : 503
Stream size                              : 55.0 KiB (0%)
Language                                 : Tamil
Default                                  : No
Forced                                   : No

Text #37
ID                                       : 39
Format                                   : UTF-8
Codec ID                                 : S_TEXT/UTF8
Codec ID/Info                            : UTF-8 Plain Text
Duration                                 : 28 min 23 s
Bit rate                                 : 244 b/s
Frame rate                               : 0.295 FPS
Count of elements                        : 503
Stream size                              : 50.9 KiB (0%)
Language                                 : Telugu
Default                                  : No
Forced                                   : No

Text #38
ID                                       : 40
Format                                   : UTF-8
Codec ID                                 : S_TEXT/UTF8
Codec ID/Info                            : UTF-8 Plain Text
Duration                                 : 28 min 23 s
Bit rate                                 : 204 b/s
Frame rate                               : 0.295 FPS
Count of elements                        : 503
Stream size                              : 42.5 KiB (0%)
Language                                 : Thai
Default                                  : No
Forced                                   : No

Text #39
ID                                       : 41
Format                                   : UTF-8
Codec ID                                 : S_TEXT/UTF8
Codec ID/Info                            : UTF-8 Plain Text
Duration                                 : 28 min 23 s
Bit rate                                 : 82 b/s
Frame rate                               : 0.285 FPS
Count of elements                        : 485
Stream size                              : 17.1 KiB (0%)
Language                                 : Turkish
Default                                  : No
Forced                                   : No

Text #40
ID                                       : 42
Format                                   : UTF-8
Codec ID                                 : S_TEXT/UTF8
Codec ID/Info                            : UTF-8 Plain Text
Duration                                 : 28 min 23 s
Bit rate                                 : 120 b/s
Frame rate                               : 0.296 FPS
Count of elements                        : 504
Stream size                              : 25.0 KiB (0%)
Language                                 : Ukrainian
Default                                  : No
Forced                                   : No

Text #41
ID                                       : 43
Format                                   : UTF-8
Codec ID                                 : S_TEXT/UTF8
Codec ID/Info                            : UTF-8 Plain Text
Duration                                 : 28 min 23 s
Bit rate                                 : 107 b/s
Frame rate                               : 0.296 FPS
Count of elements                        : 504
Stream size                              : 22.4 KiB (0%)
Language                                 : Vietnamese
Default                                  : No
Forced                                   : No

Text #42
ID                                       : 44
Format                                   : UTF-8
Codec ID                                 : S_TEXT/UTF8
Codec ID/Info                            : UTF-8 Plain Text
Duration                                 : 28 min 23 s
Bit rate                                 : 66 b/s
Frame rate                               : 0.295 FPS
Count of elements                        : 503
Stream size                              : 13.8 KiB (0%)
Title                                    : Cantonese (Traditional)
Language                                 : Cantonese (Hant)
Default                                  : No
Forced                                   : No

Menu
00:00:00.000                             : en:Chapter 1
00:03:25.791                             : en:Intro
00:04:02.166                             : en:Chapter 2



Download
File Container: MKV
Video/Audio Codec: H264 (HIGH) EAC3
Video Resolution: 1920x960

2 Responses to "[RR/NF] Loot S02E09 Mood Vibrations 1080p ATVP WEB-DL DDP5 1 H 264-NTb (2.2GB)"
05/23/24
01:30:30
ReadyPlayerOne

Thank you!

05/23/24
23:46:17
DuranDuran

THE MS PAT show = Does anyone have BOTH the MS PAT show (SEASON 3)-and- (SEASON 4) that just came out? if so... please post.. in ClickUpload and/or Freedlink please...and, thank u in advance :)

Please Login to post a comment.
If you don't have any account, please Register.
  • Subscribe my Feeds
  • Facebook
Encoding Queue:  x264  x265

Latest Episodes

Popular Movies and TV Shows

  • The Primevals
  • Brick Mansions
  • The Artifice Girl
  • All Rise
  • Viral Hit
  • The 11th Hour
  • The Acolyte
  • Dark Matter
  • Presumed Innocent
  • Ninja Terminator
  • Mysteries of the Terracotta Warriors
  • How Music Got Free
  • WWE NXT
  • The Big Door Prize
  • Trying
  • Lost Soulz
  • The Beast in the Jungle
  • Pet Sematary
  • The Loud House
  • Acapulco
  • The Bold and the Beautiful
  • Wild Eyed and Wicked
  • Peggy Sue Got Married
  • From Russia with Love
  • The Daily Show

Recent Comments

  • KissclTum: [url=https://kisstom.ru/prices]имплант с коронкой цена кисс [/url] Tegs: и...
  • Diggety247:

    BrokenHanded, Try using a DL manager.

  • BrokenHanded: clicknupload does not seem to work for past few days. keep getting an error saying the site is sendi...
  • Bud: Helps if you actually add these to the "Late Night with Seth Meyers" page too...
  • rambaldi70:

    Hy! Right now, my download speed : 1 Mb/s
    this is ok?
    Tx answer

  • Cinque_Persson: At 183 MB this had to be something completely different. In fact it's just the main actors commentin...
  • meyat74:

    my bad, should be full season

  • Oscar2:

    Halo "is" a good show

  • MeH:

    "one of the most impressive scenes"

  • rappet:

    Unfortunately, episode 2 not playing and episode 3 half missing (only 37 minutes long).

  • Anovani:

    Nice 1

  • shark:

    Will there be a sequel?

  • sjors:

    This release in in Russian with Russian subs. No English.

  • RapidRabbit98: I'll ask again Forged in Fire Series 11 episode 1 - anyone have it?

Archives