Sign Up   |   Sign In  

Announcements

Want to support us?
Buy a RapidRAR account from our resellers:
Buy or renew a NitroFlare account via THIS LINK

04/19

2017

No

Comments

Marvels Agents of S H I E L D S04E18 WEBRip x264-RARBG
[RR/NF/UL/OL/OLw/UR/CU]
Size: 375MB mp4 H264 (HIGH) (AVC1) / AAC (LC) (MP4A) 720x400

Agents of S.H.I.E.L.D.
Click on the image to see full size
[RR/NF/UL/OL/OLw/UR/CU] Marvels Agents of S H I E L D S04E18 WEBRip x264-RARBG (375MB) - Snapshot 1[RR/NF/UL/OL/OLw/UR/CU] Marvels Agents of S H I E L D S04E18 WEBRip x264-RARBG (375MB) - Snapshot 2
File Information
[URL]http://www.imdb.com/title/tt2364582/[/URL]
[screenshots]
[URL=http://imagecurl.com/viewer.php?file=03399789979149322424.png][IMG]http://imagecurl.com/images/03399789979149322424_thumb.png[/IMG][/URL]
[URL=http://imagecurl.com/viewer.php?file=43752473382920842627.png][IMG]http://imagecurl.com/images/43752473382920842627_thumb.png[/IMG][/URL]
[URL=http://imagecurl.com/viewer.php?file=43577286354971782520.png][IMG]http://imagecurl.com/images/43577286354971782520_thumb.png[/IMG][/URL]
[URL=http://imagecurl.com/viewer.php?file=45132581527863901866.png][IMG]http://imagecurl.com/images/45132581527863901866_thumb.png[/IMG][/URL]

[/screenshots]


[mediainfo]
Video
ID                                       : 1
Format                                   : AVC
Format/Info                              : Advanced Video Codec
Format profile                           : [email protected]
Format settings, CABAC                   : Yes
Format settings, ReFrames                : 5 frames
Codec ID                                 : avc1
Codec ID/Info                            : Advanced Video Coding
Duration                                 : 43mn 0s
Bit rate                                 : 1 100 Kbps
Width                                    : 720 pixels
Height                                   : 400 pixels
Display aspect ratio                     : 16:9
Frame rate mode                          : Constant
Frame rate                               : 23.976 (24000/1001) fps
Color space                              : YUV
Chroma subsampling                       : 4:2:0
Bit depth                                : 8 bits
Scan type                                : Progressive
Bits/(Pixel*Frame)                       : 0.159
Stream size                              : 334 MiB (89%)
Title                                    : RARBG.COM - Marvels.Agents.of.S.H.I.E.L.D.S04E18.WEBRip.x264-RARBG
Writing library                          : x264 core 148 r2597M e86f3a1
 Encoding settings                        : cabac=1 / ref=5 / deblock=1:-1:-1 / analyse=0x3:0x113 / me=umh / subme=9 / psy=1 / psy_rd=1.00:0.15 / mixed_ref=1 / me_range=16 / chroma_me=1 / trellis=2 / 8x8dct=1 / cqm=0 / deadz / fast pskip=1 / chroma_qp_offset=-3 / threads=12 / lookahead_threads=1 / sliced_threads=0 / nr=0 / decimate=1 / interlaced=0 / bluray_compat=0 / c / bframes=3 / b_pyramid=2 / b_adapt=2 / b_bias=0 / direct=3 / weightb=1 / open_gop=0 / weightp=2 / keyint=250 / keyint_min=23 / scenecut=40 / intra_refresh=0 / rc_lookahead=50 / rc=abr / mbtree=1 / bitrate=1100 / ratetol=1.0 / qcomp=0.60 / qpmin=0 / qpmax=69 / qpstep=4 / ip_ratio=1.40 / aq=1:1.00
Language                                 : English
Encoded date                             : UTC 2017-04-19 19:26:50
Tagged date                              : UTC 2017-04-19 19:26:50

Audio
ID                                       : 2
Format                                   : AAC
Format/Info                              : Advanced Audio Codec
Format profile                           : LC
Codec ID                                 : 40
Duration                                 : 43mn 1s
Bit rate mode                            : Constant
Bit rate                                 : 128 Kbps
Channel(s)                               : 2 channels
Channel positions                        : Front: L R
Sampling rate                            : 48.0 KHz
Frame rate                               : 46.875 fps (1024 spf)
Compression mode                         : Lossy
Stream size                              : 39.4 MiB (10%)
Title                                    : RARBG.COM - Marvels.Agents.of.S.H.I.E.L.D.S04E18.WEBRip.x264-RARBG
Language                                 : English
Default                                  : Yes
Alternate group                          : 1
Encoded date                             : UTC 2017-04-19 19:26:50
Tagged date                              : UTC 2017-04-19 19:26:50



[/mediainfo]
Download
File Container: MP4
Video/Audio Codec: H264 (HIGH) (AVC1) AAC (LC) (MP4A)
Video Resolution: 720x400
 
 
 
 
 
 
Watch Online [MP4]

Show us some love

Leave a Comment

  • (never displayed)
  •  
        Members don't see captchas. Sign Up / Sign In
  • Notify me via email when someone responds.
  • Subscribe my Feeds
  • Facebook

Latest Episodes

Popular Movies and TV Shows

  • Lucifer
  • Gotham
  • Pirates of the Caribbean: Dead Men Tell No Tales
  • Casual
  • Le sexe nu
  • Take the 10
  • Outcast
  • Still Star-Crossed
  • Angie Tribeca
  • May v Corbyn Live: The Battle for Number 10
  • Game of Death
  • To glyko kormi tis Bianca
  • Good Witch
  • Loaded
  • American Gods
  • Meng long guo jiang
  • John Wick: Chapter 2
  • The Silencer
  • Silicon Valley
  • The Leftovers
  • Veep
  • Kama Sutra: A Tale of Love
  • Pork Pie
  • Machete Maidens Unleashed!
  • The White Princess

Recent Comments

  • alfa:

    Thanks

  • kimono:

    Please, can you add "Still.Star-Crossed.S01E01" ?

  • coolnick007:

    thanx a lot...

  • CL: addic7ed.comIf the available subs don't quite sync with this version, MPC-HC has hotkeys F1 and F2,...
  • Cafeine: BLOODLINE season 3 720P NF WEBRIP -NTB Could you please reencode all the NTb releases in 720p HEVC, ...
  • poya hn:

    all links r dead, plz re upload them. thank u

  • what-ever: ... some are thick as a brick, twice as dense , but only half as quick ! . ¯\_(ツ)_/¯
  • brick: and the stupid just keeps on coming!!! LOLdoes anyone know what this is? or what it means? ---This f...
  • bigbadbryce: "Black Widows" (2016-2017)(Finlnd)@ dymo310The following season 1 pack is intact with all ...
  • Moderator: Administrator is there any chance to upload again Madam Secretary S03E16 720p hevc rmteam Thank U