Sign Up   |   Sign In  
Red Right HandUndead UnluckResident AlienTurtles Can FlyThe Heartbreak KidGeniusYoung SheldonSo Help Me ToddGhostsLovely, Dark, and DeepHistory of EvilThe GoatMasters of the AirAvatar: The Last AirbenderLaw & Order Toronto: Criminal IntentEarwormJenny Slate: Seasoned ProfessionalTiger StripesHaloHightownLaw & Order: Special Victims UnitCellphoneMoonedThe Last AirbenderConstellation

Announcements

02/09

2024

1

Comments

Masters of the Air S01E04 Part Four 720p ATVP WEB-DL DDP5 1 H 264-NTb
[RR/NF/CU]
Size: 1.3GB mkv H264 (HIGH) / EAC3  HD  1482x620

Masters of the Air
File Information
[img]http://lookpic.com/cdn/i2/t/0209202408234860-1.jpg[/img]
[img]http://lookpic.com/cdn/i2/t/0209202408234860-2.jpg[/img]
[img]http://lookpic.com/cdn/i2/t/0209202408234860-3.jpg[/img]

General
Unique ID                                : 244693465355458870127557879082527988160 (0xB8163F494FC38620959CD70C7E0F99C0)
Complete name                            : Masters.of.the.Air.S01E04.Part.Four.720p.ATVP.WEB-DL.DDP5.1.H.264-NTb.mkv
Format                                   : Matroska
Format version                           : Version 4
File size                                : 1.29 GiB
Duration                                 : 52 min 2 s
Overall bit rate                         : 3 538 kb/s
Frame rate                               : 23.976 FPS
Writing application                      : mkvmerge v81.0 ('Milliontown') 64-bit
Writing library                          : libebml v1.4.4 + libmatroska v1.7.1

Video
ID                                       : 1
Format                                   : AVC
Format/Info                              : Advanced Video Codec
Format profile                           : High@L3.2
Format settings                          : CABAC / 5 Ref Frames
Format settings, CABAC                   : Yes
Format settings, Reference frames        : 5 frames
Codec ID                                 : V_MPEG4/ISO/AVC
Duration                                 : 52 min 2 s
Bit rate                                 : 2 763 kb/s
Width                                    : 1 482 pixels
Height                                   : 620 pixels
Display aspect ratio                     : 2.40:1
Frame rate mode                          : Constant
Frame rate                               : 23.976 (24000/1001) FPS
Color space                              : YUV
Chroma subsampling                       : 4:2:0
Bit depth                                : 8 bits
Scan type                                : Progressive
Bits/(Pixel*Frame)                       : 0.125
Stream size                              : 1.00 GiB (78%)
Default                                  : Yes
Forced                                   : No
Color range                              : Limited
Color primaries                          : BT.709
Transfer characteristics                 : BT.709
Matrix coefficients                      : BT.709

Audio
ID                                       : 2
Format                                   : E-AC-3 JOC
Format/Info                              : Enhanced AC-3 with Joint Object Coding
Commercial name                          : Dolby Digital Plus with Dolby Atmos
Codec ID                                 : A_EAC3
Duration                                 : 52 min 2 s
Bit rate mode                            : Constant
Bit rate                                 : 768 kb/s
Channel(s)                               : 6 channels
Channel layout                           : L R C LFE Ls Rs
Sampling rate                            : 48.0 kHz
Frame rate                               : 31.250 FPS (1536 SPF)
Compression mode                         : Lossy
Stream size                              : 286 MiB (22%)
Language                                 : English
Service kind                             : Complete Main
Default                                  : Yes
Forced                                   : No
Complexity index                         : 16
Number of dynamic objects                : 15
Bed channel count                        : 1 channel
Bed channel configuration                : LFE

Text #1
ID                                       : 3
Format                                   : UTF-8
Codec ID                                 : S_TEXT/UTF8
Codec ID/Info                            : UTF-8 Plain Text
Duration                                 : 3 min 18 s
Bit rate                                 : 29 b/s
Frame rate                               : 0.116 FPS
Count of elements                        : 23
Stream size                              : 745 Bytes (0%)
Title                                    : Forced
Language                                 : English
Default                                  : Yes
Forced                                   : Yes

Text #2
ID                                       : 4
Format                                   : UTF-8
Codec ID                                 : S_TEXT/UTF8
Codec ID/Info                            : UTF-8 Plain Text
Duration                                 : 45 min 53 s
Bit rate                                 : 56 b/s
Frame rate                               : 0.228 FPS
Count of elements                        : 629
Stream size                              : 19.0 KiB (0%)
Language                                 : English
Default                                  : No
Forced                                   : No

Text #3
ID                                       : 5
Format                                   : UTF-8
Codec ID                                 : S_TEXT/UTF8
Codec ID/Info                            : UTF-8 Plain Text
Duration                                 : 45 min 53 s
Bit rate                                 : 66 b/s
Frame rate                               : 0.254 FPS
Count of elements                        : 700
Stream size                              : 22.4 KiB (0%)
Title                                    : SDH
Language                                 : English
Default                                  : No
Forced                                   : No

Text #4
ID                                       : 6
Format                                   : UTF-8
Codec ID                                 : S_TEXT/UTF8
Codec ID/Info                            : UTF-8 Plain Text
Duration                                 : 51 min 27 s
Bit rate                                 : 72 b/s
Frame rate                               : 0.209 FPS
Count of elements                        : 644
Stream size                              : 27.2 KiB (0%)
Language                                 : Arabic
Default                                  : No
Forced                                   : No

Text #5
ID                                       : 7
Format                                   : UTF-8
Codec ID                                 : S_TEXT/UTF8
Codec ID/Info                            : UTF-8 Plain Text
Duration                                 : 51 min 27 s
Bit rate                                 : 73 b/s
Frame rate                               : 0.159 FPS
Count of elements                        : 491
Stream size                              : 27.7 KiB (0%)
Language                                 : Bulgarian
Default                                  : No
Forced                                   : No

Text #6
ID                                       : 8
Format                                   : UTF-8
Codec ID                                 : S_TEXT/UTF8
Codec ID/Info                            : UTF-8 Plain Text
Duration                                 : 51 min 27 s
Bit rate                                 : 45 b/s
Frame rate                               : 0.209 FPS
Count of elements                        : 644
Stream size                              : 17.2 KiB (0%)
Title                                    : Chinese (Simplified)
Language                                 : Chinese (Simplified)
Default                                  : No
Forced                                   : No

Text #7
ID                                       : 9
Format                                   : UTF-8
Codec ID                                 : S_TEXT/UTF8
Codec ID/Info                            : UTF-8 Plain Text
Duration                                 : 51 min 27 s
Bit rate                                 : 46 b/s
Frame rate                               : 0.209 FPS
Count of elements                        : 646
Stream size                              : 17.7 KiB (0%)
Title                                    : Chinese (Traditional)
Language                                 : Chinese (Traditional)
Default                                  : No
Forced                                   : No

Text #8
ID                                       : 10
Format                                   : UTF-8
Codec ID                                 : S_TEXT/UTF8
Codec ID/Info                            : UTF-8 Plain Text
Duration                                 : 51 min 27 s
Bit rate                                 : 45 b/s
Frame rate                               : 0.199 FPS
Count of elements                        : 613
Stream size                              : 17.1 KiB (0%)
Language                                 : Czech
Default                                  : No
Forced                                   : No

Text #9
ID                                       : 11
Format                                   : UTF-8
Codec ID                                 : S_TEXT/UTF8
Codec ID/Info                            : UTF-8 Plain Text
Duration                                 : 51 min 27 s
Bit rate                                 : 49 b/s
Frame rate                               : 0.174 FPS
Count of elements                        : 537
Stream size                              : 18.5 KiB (0%)
Language                                 : Danish
Default                                  : No
Forced                                   : No

Text #10
ID                                       : 12
Format                                   : UTF-8
Codec ID                                 : S_TEXT/UTF8
Codec ID/Info                            : UTF-8 Plain Text
Duration                                 : 51 min 24 s
Bit rate                                 : 49 b/s
Frame rate                               : 0.193 FPS
Count of elements                        : 594
Stream size                              : 18.8 KiB (0%)
Language                                 : German
Default                                  : No
Forced                                   : No

Text #11
ID                                       : 13
Format                                   : UTF-8
Codec ID                                 : S_TEXT/UTF8
Codec ID/Info                            : UTF-8 Plain Text
Duration                                 : 51 min 27 s
Bit rate                                 : 81 b/s
Frame rate                               : 0.199 FPS
Count of elements                        : 615
Stream size                              : 30.7 KiB (0%)
Language                                 : Greek
Default                                  : No
Forced                                   : No

Text #12
ID                                       : 14
Format                                   : UTF-8
Codec ID                                 : S_TEXT/UTF8
Codec ID/Info                            : UTF-8 Plain Text
Duration                                 : 51 min 27 s
Bit rate                                 : 52 b/s
Frame rate                               : 0.208 FPS
Count of elements                        : 643
Stream size                              : 19.7 KiB (0%)
Title                                    : Spanish (Latin America)
Language                                 : Spanish (Latin America)
Default                                  : No
Forced                                   : No

Text #13
ID                                       : 15
Format                                   : UTF-8
Codec ID                                 : S_TEXT/UTF8
Codec ID/Info                            : UTF-8 Plain Text
Duration                                 : 51 min 27 s
Bit rate                                 : 51 b/s
Frame rate                               : 0.207 FPS
Count of elements                        : 639
Stream size                              : 19.3 KiB (0%)
Title                                    : Spanish (Spain)
Language                                 : Spanish (ES)
Default                                  : No
Forced                                   : No

Text #14
ID                                       : 16
Format                                   : UTF-8
Codec ID                                 : S_TEXT/UTF8
Codec ID/Info                            : UTF-8 Plain Text
Duration                                 : 51 min 27 s
Bit rate                                 : 48 b/s
Frame rate                               : 0.207 FPS
Count of elements                        : 639
Stream size                              : 18.2 KiB (0%)
Language                                 : Estonian
Default                                  : No
Forced                                   : No

Text #15
ID                                       : 17
Format                                   : UTF-8
Codec ID                                 : S_TEXT/UTF8
Codec ID/Info                            : UTF-8 Plain Text
Duration                                 : 51 min 27 s
Bit rate                                 : 47 b/s
Frame rate                               : 0.198 FPS
Count of elements                        : 610
Stream size                              : 18.1 KiB (0%)
Language                                 : Finnish
Default                                  : No
Forced                                   : No

Text #16
ID                                       : 18
Format                                   : UTF-8
Codec ID                                 : S_TEXT/UTF8
Codec ID/Info                            : UTF-8 Plain Text
Duration                                 : 51 min 25 s
Bit rate                                 : 46 b/s
Frame rate                               : 0.209 FPS
Count of elements                        : 646
Stream size                              : 17.7 KiB (0%)
Title                                    : French (Canada)
Language                                 : French (CA)
Default                                  : No
Forced                                   : No

Text #17
ID                                       : 19
Format                                   : UTF-8
Codec ID                                 : S_TEXT/UTF8
Codec ID/Info                            : UTF-8 Plain Text
Duration                                 : 51 min 25 s
Bit rate                                 : 46 b/s
Frame rate                               : 0.209 FPS
Count of elements                        : 645
Stream size                              : 17.7 KiB (0%)
Title                                    : French (France)
Language                                 : French (FR)
Default                                  : No
Forced                                   : No

Text #18
ID                                       : 20
Format                                   : UTF-8
Codec ID                                 : S_TEXT/UTF8
Codec ID/Info                            : UTF-8 Plain Text
Duration                                 : 51 min 27 s
Bit rate                                 : 69 b/s
Frame rate                               : 0.209 FPS
Count of elements                        : 644
Stream size                              : 26.2 KiB (0%)
Language                                 : Hebrew
Default                                  : No
Forced                                   : No

Text #19
ID                                       : 21
Format                                   : UTF-8
Codec ID                                 : S_TEXT/UTF8
Codec ID/Info                            : UTF-8 Plain Text
Duration                                 : 51 min 27 s
Bit rate                                 : 133 b/s
Frame rate                               : 0.209 FPS
Count of elements                        : 645
Stream size                              : 50.2 KiB (0%)
Language                                 : Hindi
Default                                  : No
Forced                                   : No

Text #20
ID                                       : 22
Format                                   : UTF-8
Codec ID                                 : S_TEXT/UTF8
Codec ID/Info                            : UTF-8 Plain Text
Duration                                 : 51 min 27 s
Bit rate                                 : 48 b/s
Frame rate                               : 0.207 FPS
Count of elements                        : 640
Stream size                              : 18.4 KiB (0%)
Language                                 : Hungarian
Default                                  : No
Forced                                   : No

Text #21
ID                                       : 23
Format                                   : UTF-8
Codec ID                                 : S_TEXT/UTF8
Codec ID/Info                            : UTF-8 Plain Text
Duration                                 : 51 min 27 s
Bit rate                                 : 53 b/s
Frame rate                               : 0.208 FPS
Count of elements                        : 643
Stream size                              : 20.1 KiB (0%)
Language                                 : Indonesian
Default                                  : No
Forced                                   : No

Text #22
ID                                       : 24
Format                                   : UTF-8
Codec ID                                 : S_TEXT/UTF8
Codec ID/Info                            : UTF-8 Plain Text
Duration                                 : 51 min 22 s
Bit rate                                 : 49 b/s
Frame rate                               : 0.204 FPS
Count of elements                        : 629
Stream size                              : 18.8 KiB (0%)
Language                                 : Italian
Default                                  : No
Forced                                   : No

Text #23
ID                                       : 25
Format                                   : UTF-8
Codec ID                                 : S_TEXT/UTF8
Codec ID/Info                            : UTF-8 Plain Text
Duration                                 : 51 min 48 s
Bit rate                                 : 42 b/s
Frame rate                               : 0.195 FPS
Count of elements                        : 607
Stream size                              : 16.1 KiB (0%)
Language                                 : Japanese
Default                                  : No
Forced                                   : No

Text #24
ID                                       : 26
Format                                   : UTF-8
Codec ID                                 : S_TEXT/UTF8
Codec ID/Info                            : UTF-8 Plain Text
Duration                                 : 51 min 27 s
Bit rate                                 : 52 b/s
Frame rate                               : 0.209 FPS
Count of elements                        : 645
Stream size                              : 19.8 KiB (0%)
Language                                 : Korean
Default                                  : No
Forced                                   : No

Text #25
ID                                       : 27
Format                                   : UTF-8
Codec ID                                 : S_TEXT/UTF8
Codec ID/Info                            : UTF-8 Plain Text
Duration                                 : 51 min 27 s
Bit rate                                 : 50 b/s
Frame rate                               : 0.208 FPS
Count of elements                        : 643
Stream size                              : 19.0 KiB (0%)
Language                                 : Lithuanian
Default                                  : No
Forced                                   : No

Text #26
ID                                       : 28
Format                                   : UTF-8
Codec ID                                 : S_TEXT/UTF8
Codec ID/Info                            : UTF-8 Plain Text
Duration                                 : 51 min 27 s
Bit rate                                 : 52 b/s
Frame rate                               : 0.206 FPS
Count of elements                        : 635
Stream size                              : 19.8 KiB (0%)
Language                                 : Latvian
Default                                  : No
Forced                                   : No

Text #27
ID                                       : 29
Format                                   : UTF-8
Codec ID                                 : S_TEXT/UTF8
Codec ID/Info                            : UTF-8 Plain Text
Duration                                 : 51 min 27 s
Bit rate                                 : 52 b/s
Frame rate                               : 0.208 FPS
Count of elements                        : 642
Stream size                              : 19.9 KiB (0%)
Language                                 : Malay
Default                                  : No
Forced                                   : No

Text #28
ID                                       : 30
Format                                   : UTF-8
Codec ID                                 : S_TEXT/UTF8
Codec ID/Info                            : UTF-8 Plain Text
Duration                                 : 51 min 27 s
Bit rate                                 : 44 b/s
Frame rate                               : 0.162 FPS
Count of elements                        : 501
Stream size                              : 16.7 KiB (0%)
Language                                 : Dutch
Default                                  : No
Forced                                   : No

Text #29
ID                                       : 31
Format                                   : UTF-8
Codec ID                                 : S_TEXT/UTF8
Codec ID/Info                            : UTF-8 Plain Text
Duration                                 : 51 min 27 s
Bit rate                                 : 46 b/s
Frame rate                               : 0.168 FPS
Count of elements                        : 520
Stream size                              : 17.6 KiB (0%)
Language                                 : Norwegian
Default                                  : No
Forced                                   : No

Text #30
ID                                       : 32
Format                                   : UTF-8
Codec ID                                 : S_TEXT/UTF8
Codec ID/Info                            : UTF-8 Plain Text
Duration                                 : 51 min 27 s
Bit rate                                 : 44 b/s
Frame rate                               : 0.198 FPS
Count of elements                        : 612
Stream size                              : 16.8 KiB (0%)
Language                                 : Polish
Default                                  : No
Forced                                   : No

Text #31
ID                                       : 33
Format                                   : UTF-8
Codec ID                                 : S_TEXT/UTF8
Codec ID/Info                            : UTF-8 Plain Text
Duration                                 : 51 min 27 s
Bit rate                                 : 52 b/s
Frame rate                               : 0.208 FPS
Count of elements                        : 643
Stream size                              : 19.8 KiB (0%)
Title                                    : Portuguese
Language                                 : Portuguese
Default                                  : No
Forced                                   : No

Text #32
ID                                       : 34
Format                                   : UTF-8
Codec ID                                 : S_TEXT/UTF8
Codec ID/Info                            : UTF-8 Plain Text
Duration                                 : 51 min 27 s
Bit rate                                 : 48 b/s
Frame rate                               : 0.193 FPS
Count of elements                        : 595
Stream size                              : 18.3 KiB (0%)
Title                                    : Portuguese (Brazil)
Language                                 : Portuguese (BR)
Default                                  : No
Forced                                   : No

Text #33
ID                                       : 35
Format                                   : UTF-8
Codec ID                                 : S_TEXT/UTF8
Codec ID/Info                            : UTF-8 Plain Text
Duration                                 : 51 min 27 s
Bit rate                                 : 76 b/s
Frame rate                               : 0.204 FPS
Count of elements                        : 630
Stream size                              : 29.0 KiB (0%)
Language                                 : Russian
Default                                  : No
Forced                                   : No

Text #34
ID                                       : 36
Format                                   : UTF-8
Codec ID                                 : S_TEXT/UTF8
Codec ID/Info                            : UTF-8 Plain Text
Duration                                 : 51 min 27 s
Bit rate                                 : 47 b/s
Frame rate                               : 0.208 FPS
Count of elements                        : 643
Stream size                              : 17.8 KiB (0%)
Language                                 : Slovak
Default                                  : No
Forced                                   : No

Text #35
ID                                       : 37
Format                                   : UTF-8
Codec ID                                 : S_TEXT/UTF8
Codec ID/Info                            : UTF-8 Plain Text
Duration                                 : 51 min 27 s
Bit rate                                 : 42 b/s
Frame rate                               : 0.181 FPS
Count of elements                        : 560
Stream size                              : 16.0 KiB (0%)
Language                                 : Slovenian
Default                                  : No
Forced                                   : No

Text #36
ID                                       : 38
Format                                   : UTF-8
Codec ID                                 : S_TEXT/UTF8
Codec ID/Info                            : UTF-8 Plain Text
Duration                                 : 51 min 27 s
Bit rate                                 : 50 b/s
Frame rate                               : 0.206 FPS
Count of elements                        : 637
Stream size                              : 19.0 KiB (0%)
Language                                 : Swedish
Default                                  : No
Forced                                   : No

Text #37
ID                                       : 39
Format                                   : UTF-8
Codec ID                                 : S_TEXT/UTF8
Codec ID/Info                            : UTF-8 Plain Text
Duration                                 : 51 min 27 s
Bit rate                                 : 169 b/s
Frame rate                               : 0.209 FPS
Count of elements                        : 644
Stream size                              : 63.8 KiB (0%)
Language                                 : Tamil
Default                                  : No
Forced                                   : No

Text #38
ID                                       : 40
Format                                   : UTF-8
Codec ID                                 : S_TEXT/UTF8
Codec ID/Info                            : UTF-8 Plain Text
Duration                                 : 51 min 27 s
Bit rate                                 : 154 b/s
Frame rate                               : 0.209 FPS
Count of elements                        : 644
Stream size                              : 58.0 KiB (0%)
Language                                 : Telugu
Default                                  : No
Forced                                   : No

Text #39
ID                                       : 41
Format                                   : UTF-8
Codec ID                                 : S_TEXT/UTF8
Codec ID/Info                            : UTF-8 Plain Text
Duration                                 : 51 min 27 s
Bit rate                                 : 109 b/s
Frame rate                               : 0.209 FPS
Count of elements                        : 644
Stream size                              : 41.2 KiB (0%)
Language                                 : Thai
Default                                  : No
Forced                                   : No

Text #40
ID                                       : 42
Format                                   : UTF-8
Codec ID                                 : S_TEXT/UTF8
Codec ID/Info                            : UTF-8 Plain Text
Duration                                 : 51 min 27 s
Bit rate                                 : 50 b/s
Frame rate                               : 0.203 FPS
Count of elements                        : 627
Stream size                              : 19.0 KiB (0%)
Language                                 : Turkish
Default                                  : No
Forced                                   : No

Text #41
ID                                       : 43
Format                                   : UTF-8
Codec ID                                 : S_TEXT/UTF8
Codec ID/Info                            : UTF-8 Plain Text
Duration                                 : 51 min 27 s
Bit rate                                 : 74 b/s
Frame rate                               : 0.209 FPS
Count of elements                        : 645
Stream size                              : 28.1 KiB (0%)
Language                                 : Ukrainian
Default                                  : No
Forced                                   : No

Text #42
ID                                       : 44
Format                                   : UTF-8
Codec ID                                 : S_TEXT/UTF8
Codec ID/Info                            : UTF-8 Plain Text
Duration                                 : 51 min 27 s
Bit rate                                 : 69 b/s
Frame rate                               : 0.209 FPS
Count of elements                        : 645
Stream size                              : 26.2 KiB (0%)
Language                                 : Vietnamese
Default                                  : No
Forced                                   : No

Text #43
ID                                       : 45
Format                                   : UTF-8
Codec ID                                 : S_TEXT/UTF8
Codec ID/Info                            : UTF-8 Plain Text
Duration                                 : 51 min 27 s
Bit rate                                 : 40 b/s
Frame rate                               : 0.209 FPS
Count of elements                        : 645
Stream size                              : 15.3 KiB (0%)
Title                                    : Chinese (Traditional)
Language                                 : Chinese (Traditional)
Default                                  : No
Forced                                   : No

Menu
00:00:00.000                             : en:Chapter 1
00:06:31.041                             : en:Intro
00:08:33.875                             : en:Chapter 2



Download
File Container: MKV
Video/Audio Codec: H264 (HIGH) EAC3
Video Resolution: 1482x620

1 Response to "[RR/NF/CU] Masters of the Air S01E04 Part Four 720p ATVP WEB-DL DDP5 1 H 264-NTb (1.3GB)"
02/09/24
20:00:23
ReadyPlayerOne

Thank You

Please Login to post a comment.
If you don't have any account, please Register.
  • Subscribe my Feeds
  • Facebook

Latest Episodes

Popular Movies and TV Shows

  • Red Right Hand
  • Undead Unluck
  • Resident Alien
  • Turtles Can Fly
  • The Heartbreak Kid
  • Genius
  • Young Sheldon
  • So Help Me Todd
  • Ghosts
  • Lovely, Dark, and Deep
  • History of Evil
  • The Goat
  • Masters of the Air
  • Avatar: The Last Airbender
  • Law & Order Toronto: Criminal Intent
  • Earworm
  • Jenny Slate: Seasoned Professional
  • Tiger Stripes
  • Halo
  • Hightown
  • Law & Order: Special Victims Unit
  • Cellphone
  • Mooned
  • The Last Airbender
  • Constellation

Recent Comments

Archives