Sign Up   |   Sign In  
Beacon 23ParishSaturday Night LiveNorth Korea: Inside the Mind of a DictatorWillowImmoral WomenRiddle of FireA Gentleman in MoscowBlueyScrambled48 HoursBlue BloodsGrey's AnatomyS.W.A.T.Pacific Rim: UprisingThe War on ChildrenSleeping DogsFalloutFire CountryStar Trek: DiscoveryT2 TrainspottingWhiplashDamagedSugarYoung Sheldon

Announcements

03/01

2024

2

Comments

Masters of the Air S01E07 Part Seven 1080p ATVP WEB-DL DDP5 1 H 264-NTb
[RR/NF]
Size: 3.7GB mkv H264 (HIGH) / EAC3  HD  1918x802

Masters of the Air
File Information
[img]http://lookpic.com/cdn/i2/t/0301202404095901-1.jpg[/img]
[img]http://lookpic.com/cdn/i2/t/0301202404095901-2.jpg[/img]
[img]http://lookpic.com/cdn/i2/t/0301202404095901-3.jpg[/img]

General
Unique ID                                : 141275955660333380765143255501706919164 (0x6A48C2644A70F17C11F6F93BA3B07CFC)
Complete name                            : Masters.of.the.Air.S01E07.Part.Seven.1080p.ATVP.WEB-DL.DDP5.1.H.264-NTb.mkv
Format                                   : Matroska
Format version                           : Version 4
File size                                : 3.74 GiB
Duration                                 : 49 min 25 s
Overall bit rate                         : 10.8 Mb/s
Frame rate                               : 23.976 FPS
Writing application                      : mkvmerge v81.0 ('Milliontown') 64-bit
Writing library                          : libebml v1.4.4 + libmatroska v1.7.1

Video
ID                                       : 1
Format                                   : AVC
Format/Info                              : Advanced Video Codec
Format profile                           : High@L4
Format settings                          : CABAC / 5 Ref Frames
Format settings, CABAC                   : Yes
Format settings, Reference frames        : 5 frames
Codec ID                                 : V_MPEG4/ISO/AVC
Duration                                 : 49 min 25 s
Bit rate                                 : 10.0 Mb/s
Width                                    : 1 918 pixels
Height                                   : 802 pixels
Display aspect ratio                     : 2.40:1
Frame rate mode                          : Constant
Frame rate                               : 23.976 (24000/1001) FPS
Color space                              : YUV
Chroma subsampling                       : 4:2:0
Bit depth                                : 8 bits
Scan type                                : Progressive
Bits/(Pixel*Frame)                       : 0.272
Stream size                              : 3.47 GiB (93%)
Default                                  : Yes
Forced                                   : No
Color range                              : Limited
Color primaries                          : BT.709
Transfer characteristics                 : BT.709
Matrix coefficients                      : BT.709

Audio
ID                                       : 2
Format                                   : E-AC-3 JOC
Format/Info                              : Enhanced AC-3 with Joint Object Coding
Commercial name                          : Dolby Digital Plus with Dolby Atmos
Codec ID                                 : A_EAC3
Duration                                 : 49 min 25 s
Bit rate mode                            : Constant
Bit rate                                 : 768 kb/s
Channel(s)                               : 6 channels
Channel layout                           : L R C LFE Ls Rs
Sampling rate                            : 48.0 kHz
Frame rate                               : 31.250 FPS (1536 SPF)
Compression mode                         : Lossy
Stream size                              : 272 MiB (7%)
Language                                 : English
Service kind                             : Complete Main
Default                                  : Yes
Forced                                   : No
Complexity index                         : 16
Number of dynamic objects                : 15
Bed channel count                        : 1 channel
Bed channel configuration                : LFE

Text #1
ID                                       : 3
Format                                   : UTF-8
Codec ID                                 : S_TEXT/UTF8
Codec ID/Info                            : UTF-8 Plain Text
Duration                                 : 8 min 26 s
Bit rate                                 : 1 b/s
Frame rate                               : 0.006 FPS
Count of elements                        : 3
Stream size                              : 80.0 Bytes (0%)
Title                                    : Forced
Language                                 : English
Default                                  : Yes
Forced                                   : Yes

Text #2
ID                                       : 4
Format                                   : UTF-8
Codec ID                                 : S_TEXT/UTF8
Codec ID/Info                            : UTF-8 Plain Text
Duration                                 : 43 min 20 s
Bit rate                                 : 58 b/s
Frame rate                               : 0.213 FPS
Count of elements                        : 555
Stream size                              : 18.7 KiB (0%)
Language                                 : English
Default                                  : No
Forced                                   : No

Text #3
ID                                       : 5
Format                                   : UTF-8
Codec ID                                 : S_TEXT/UTF8
Codec ID/Info                            : UTF-8 Plain Text
Duration                                 : 43 min 21 s
Bit rate                                 : 72 b/s
Frame rate                               : 0.247 FPS
Count of elements                        : 642
Stream size                              : 23.0 KiB (0%)
Title                                    : SDH
Language                                 : English
Default                                  : No
Forced                                   : No

Text #4
ID                                       : 6
Format                                   : UTF-8
Codec ID                                 : S_TEXT/UTF8
Codec ID/Info                            : UTF-8 Plain Text
Duration                                 : 48 min 48 s
Bit rate                                 : 74 b/s
Frame rate                               : 0.195 FPS
Count of elements                        : 571
Stream size                              : 26.6 KiB (0%)
Language                                 : Arabic
Default                                  : No
Forced                                   : No

Text #5
ID                                       : 7
Format                                   : UTF-8
Codec ID                                 : S_TEXT/UTF8
Codec ID/Info                            : UTF-8 Plain Text
Duration                                 : 48 min 48 s
Bit rate                                 : 75 b/s
Frame rate                               : 0.153 FPS
Count of elements                        : 448
Stream size                              : 26.9 KiB (0%)
Language                                 : Bulgarian
Default                                  : No
Forced                                   : No

Text #6
ID                                       : 8
Format                                   : UTF-8
Codec ID                                 : S_TEXT/UTF8
Codec ID/Info                            : UTF-8 Plain Text
Duration                                 : 48 min 48 s
Bit rate                                 : 44 b/s
Frame rate                               : 0.195 FPS
Count of elements                        : 571
Stream size                              : 16.0 KiB (0%)
Title                                    : Chinese (Simplified)
Language                                 : Chinese (Simplified)
Default                                  : No
Forced                                   : No

Text #7
ID                                       : 9
Format                                   : UTF-8
Codec ID                                 : S_TEXT/UTF8
Codec ID/Info                            : UTF-8 Plain Text
Duration                                 : 48 min 48 s
Bit rate                                 : 46 b/s
Frame rate                               : 0.195 FPS
Count of elements                        : 572
Stream size                              : 16.5 KiB (0%)
Title                                    : Chinese (Traditional)
Language                                 : Chinese (Traditional)
Default                                  : No
Forced                                   : No

Text #8
ID                                       : 10
Format                                   : UTF-8
Codec ID                                 : S_TEXT/UTF8
Codec ID/Info                            : UTF-8 Plain Text
Duration                                 : 48 min 48 s
Bit rate                                 : 46 b/s
Frame rate                               : 0.185 FPS
Count of elements                        : 541
Stream size                              : 16.5 KiB (0%)
Language                                 : Czech
Default                                  : No
Forced                                   : No

Text #9
ID                                       : 11
Format                                   : UTF-8
Codec ID                                 : S_TEXT/UTF8
Codec ID/Info                            : UTF-8 Plain Text
Duration                                 : 48 min 48 s
Bit rate                                 : 50 b/s
Frame rate                               : 0.171 FPS
Count of elements                        : 501
Stream size                              : 17.9 KiB (0%)
Language                                 : Danish
Default                                  : No
Forced                                   : No

Text #10
ID                                       : 12
Format                                   : UTF-8
Codec ID                                 : S_TEXT/UTF8
Codec ID/Info                            : UTF-8 Plain Text
Duration                                 : 43 min 33 s
Bit rate                                 : 58 b/s
Frame rate                               : 0.197 FPS
Count of elements                        : 515
Stream size                              : 18.6 KiB (0%)
Language                                 : German
Default                                  : No
Forced                                   : No

Text #11
ID                                       : 13
Format                                   : UTF-8
Codec ID                                 : S_TEXT/UTF8
Codec ID/Info                            : UTF-8 Plain Text
Duration                                 : 48 min 48 s
Bit rate                                 : 84 b/s
Frame rate                               : 0.187 FPS
Count of elements                        : 547
Stream size                              : 30.2 KiB (0%)
Language                                 : Greek
Default                                  : No
Forced                                   : No

Text #12
ID                                       : 14
Format                                   : UTF-8
Codec ID                                 : S_TEXT/UTF8
Codec ID/Info                            : UTF-8 Plain Text
Duration                                 : 48 min 48 s
Bit rate                                 : 52 b/s
Frame rate                               : 0.194 FPS
Count of elements                        : 569
Stream size                              : 18.9 KiB (0%)
Title                                    : Spanish (Latin America)
Language                                 : Spanish (Latin America)
Default                                  : No
Forced                                   : No

Text #13
ID                                       : 15
Format                                   : UTF-8
Codec ID                                 : S_TEXT/UTF8
Codec ID/Info                            : UTF-8 Plain Text
Duration                                 : 48 min 48 s
Bit rate                                 : 53 b/s
Frame rate                               : 0.197 FPS
Count of elements                        : 576
Stream size                              : 19.0 KiB (0%)
Title                                    : Spanish (Spain)
Language                                 : Spanish (ES)
Default                                  : No
Forced                                   : No

Text #14
ID                                       : 16
Format                                   : UTF-8
Codec ID                                 : S_TEXT/UTF8
Codec ID/Info                            : UTF-8 Plain Text
Duration                                 : 48 min 48 s
Bit rate                                 : 49 b/s
Frame rate                               : 0.191 FPS
Count of elements                        : 560
Stream size                              : 17.8 KiB (0%)
Language                                 : Estonian
Default                                  : No
Forced                                   : No

Text #15
ID                                       : 17
Format                                   : UTF-8
Codec ID                                 : S_TEXT/UTF8
Codec ID/Info                            : UTF-8 Plain Text
Duration                                 : 48 min 48 s
Bit rate                                 : 50 b/s
Frame rate                               : 0.186 FPS
Count of elements                        : 545
Stream size                              : 17.9 KiB (0%)
Language                                 : Finnish
Default                                  : No
Forced                                   : No

Text #16
ID                                       : 18
Format                                   : UTF-8
Codec ID                                 : S_TEXT/UTF8
Codec ID/Info                            : UTF-8 Plain Text
Duration                                 : 48 min 49 s
Bit rate                                 : 48 b/s
Frame rate                               : 0.206 FPS
Count of elements                        : 602
Stream size                              : 17.3 KiB (0%)
Title                                    : French (Canada)
Language                                 : French (CA)
Default                                  : No
Forced                                   : No

Text #17
ID                                       : 19
Format                                   : UTF-8
Codec ID                                 : S_TEXT/UTF8
Codec ID/Info                            : UTF-8 Plain Text
Duration                                 : 48 min 49 s
Bit rate                                 : 48 b/s
Frame rate                               : 0.205 FPS
Count of elements                        : 601
Stream size                              : 17.2 KiB (0%)
Title                                    : French (France)
Language                                 : French (FR)
Default                                  : No
Forced                                   : No

Text #18
ID                                       : 20
Format                                   : UTF-8
Codec ID                                 : S_TEXT/UTF8
Codec ID/Info                            : UTF-8 Plain Text
Duration                                 : 48 min 48 s
Bit rate                                 : 70 b/s
Frame rate                               : 0.195 FPS
Count of elements                        : 571
Stream size                              : 25.4 KiB (0%)
Language                                 : Hebrew
Default                                  : No
Forced                                   : No

Text #19
ID                                       : 21
Format                                   : UTF-8
Codec ID                                 : S_TEXT/UTF8
Codec ID/Info                            : UTF-8 Plain Text
Duration                                 : 48 min 48 s
Bit rate                                 : 138 b/s
Frame rate                               : 0.195 FPS
Count of elements                        : 572
Stream size                              : 49.6 KiB (0%)
Language                                 : Hindi
Default                                  : No
Forced                                   : No

Text #20
ID                                       : 22
Format                                   : UTF-8
Codec ID                                 : S_TEXT/UTF8
Codec ID/Info                            : UTF-8 Plain Text
Duration                                 : 48 min 48 s
Bit rate                                 : 51 b/s
Frame rate                               : 0.191 FPS
Count of elements                        : 560
Stream size                              : 18.5 KiB (0%)
Language                                 : Hungarian
Default                                  : No
Forced                                   : No

Text #21
ID                                       : 23
Format                                   : UTF-8
Codec ID                                 : S_TEXT/UTF8
Codec ID/Info                            : UTF-8 Plain Text
Duration                                 : 48 min 48 s
Bit rate                                 : 54 b/s
Frame rate                               : 0.194 FPS
Count of elements                        : 568
Stream size                              : 19.5 KiB (0%)
Language                                 : Indonesian
Default                                  : No
Forced                                   : No

Text #22
ID                                       : 24
Format                                   : UTF-8
Codec ID                                 : S_TEXT/UTF8
Codec ID/Info                            : UTF-8 Plain Text
Duration                                 : 48 min 48 s
Bit rate                                 : 54 b/s
Frame rate                               : 0.186 FPS
Count of elements                        : 544
Stream size                              : 19.6 KiB (0%)
Language                                 : Italian
Default                                  : No
Forced                                   : No

Text #23
ID                                       : 25
Format                                   : UTF-8
Codec ID                                 : S_TEXT/UTF8
Codec ID/Info                            : UTF-8 Plain Text
Duration                                 : 49 min 11 s
Bit rate                                 : 41 b/s
Frame rate                               : 0.182 FPS
Count of elements                        : 537
Stream size                              : 15.1 KiB (0%)
Language                                 : Japanese
Default                                  : No
Forced                                   : No

Text #24
ID                                       : 26
Format                                   : UTF-8
Codec ID                                 : S_TEXT/UTF8
Codec ID/Info                            : UTF-8 Plain Text
Duration                                 : 48 min 48 s
Bit rate                                 : 51 b/s
Frame rate                               : 0.195 FPS
Count of elements                        : 571
Stream size                              : 18.5 KiB (0%)
Language                                 : Korean
Default                                  : No
Forced                                   : No

Text #25
ID                                       : 27
Format                                   : UTF-8
Codec ID                                 : S_TEXT/UTF8
Codec ID/Info                            : UTF-8 Plain Text
Duration                                 : 48 min 48 s
Bit rate                                 : 52 b/s
Frame rate                               : 0.194 FPS
Count of elements                        : 568
Stream size                              : 18.8 KiB (0%)
Language                                 : Lithuanian
Default                                  : No
Forced                                   : No

Text #26
ID                                       : 28
Format                                   : UTF-8
Codec ID                                 : S_TEXT/UTF8
Codec ID/Info                            : UTF-8 Plain Text
Duration                                 : 48 min 48 s
Bit rate                                 : 54 b/s
Frame rate                               : 0.192 FPS
Count of elements                        : 561
Stream size                              : 19.6 KiB (0%)
Language                                 : Latvian
Default                                  : No
Forced                                   : No

Text #27
ID                                       : 29
Format                                   : UTF-8
Codec ID                                 : S_TEXT/UTF8
Codec ID/Info                            : UTF-8 Plain Text
Duration                                 : 48 min 48 s
Bit rate                                 : 54 b/s
Frame rate                               : 0.194 FPS
Count of elements                        : 569
Stream size                              : 19.5 KiB (0%)
Language                                 : Malay
Default                                  : No
Forced                                   : No

Text #28
ID                                       : 30
Format                                   : UTF-8
Codec ID                                 : S_TEXT/UTF8
Codec ID/Info                            : UTF-8 Plain Text
Duration                                 : 48 min 48 s
Bit rate                                 : 43 b/s
Frame rate                               : 0.153 FPS
Count of elements                        : 449
Stream size                              : 15.7 KiB (0%)
Language                                 : Dutch
Default                                  : No
Forced                                   : No

Text #29
ID                                       : 31
Format                                   : UTF-8
Codec ID                                 : S_TEXT/UTF8
Codec ID/Info                            : UTF-8 Plain Text
Duration                                 : 48 min 48 s
Bit rate                                 : 46 b/s
Frame rate                               : 0.156 FPS
Count of elements                        : 457
Stream size                              : 16.5 KiB (0%)
Language                                 : Norwegian
Default                                  : No
Forced                                   : No

Text #30
ID                                       : 32
Format                                   : UTF-8
Codec ID                                 : S_TEXT/UTF8
Codec ID/Info                            : UTF-8 Plain Text
Duration                                 : 48 min 48 s
Bit rate                                 : 46 b/s
Frame rate                               : 0.185 FPS
Count of elements                        : 541
Stream size                              : 16.6 KiB (0%)
Language                                 : Polish
Default                                  : No
Forced                                   : No

Text #31
ID                                       : 33
Format                                   : UTF-8
Codec ID                                 : S_TEXT/UTF8
Codec ID/Info                            : UTF-8 Plain Text
Duration                                 : 48 min 48 s
Bit rate                                 : 53 b/s
Frame rate                               : 0.193 FPS
Count of elements                        : 564
Stream size                              : 19.1 KiB (0%)
Title                                    : Portuguese
Language                                 : Portuguese
Default                                  : No
Forced                                   : No

Text #32
ID                                       : 34
Format                                   : UTF-8
Codec ID                                 : S_TEXT/UTF8
Codec ID/Info                            : UTF-8 Plain Text
Duration                                 : 48 min 48 s
Bit rate                                 : 50 b/s
Frame rate                               : 0.182 FPS
Count of elements                        : 534
Stream size                              : 17.9 KiB (0%)
Title                                    : Portuguese (Brazil)
Language                                 : Portuguese (BR)
Default                                  : No
Forced                                   : No

Text #33
ID                                       : 35
Format                                   : UTF-8
Codec ID                                 : S_TEXT/UTF8
Codec ID/Info                            : UTF-8 Plain Text
Duration                                 : 48 min 48 s
Bit rate                                 : 78 b/s
Frame rate                               : 0.189 FPS
Count of elements                        : 553
Stream size                              : 28.0 KiB (0%)
Language                                 : Russian
Default                                  : No
Forced                                   : No

Text #34
ID                                       : 36
Format                                   : UTF-8
Codec ID                                 : S_TEXT/UTF8
Codec ID/Info                            : UTF-8 Plain Text
Duration                                 : 48 min 48 s
Bit rate                                 : 49 b/s
Frame rate                               : 0.194 FPS
Count of elements                        : 567
Stream size                              : 17.8 KiB (0%)
Language                                 : Slovak
Default                                  : No
Forced                                   : No

Text #35
ID                                       : 37
Format                                   : UTF-8
Codec ID                                 : S_TEXT/UTF8
Codec ID/Info                            : UTF-8 Plain Text
Duration                                 : 48 min 48 s
Bit rate                                 : 43 b/s
Frame rate                               : 0.168 FPS
Count of elements                        : 493
Stream size                              : 15.5 KiB (0%)
Language                                 : Slovenian
Default                                  : No
Forced                                   : No

Text #36
ID                                       : 38
Format                                   : UTF-8
Codec ID                                 : S_TEXT/UTF8
Codec ID/Info                            : UTF-8 Plain Text
Duration                                 : 48 min 48 s
Bit rate                                 : 51 b/s
Frame rate                               : 0.194 FPS
Count of elements                        : 567
Stream size                              : 18.6 KiB (0%)
Language                                 : Swedish
Default                                  : No
Forced                                   : No

Text #37
ID                                       : 39
Format                                   : UTF-8
Codec ID                                 : S_TEXT/UTF8
Codec ID/Info                            : UTF-8 Plain Text
Duration                                 : 48 min 48 s
Bit rate                                 : 180 b/s
Frame rate                               : 0.195 FPS
Count of elements                        : 571
Stream size                              : 64.4 KiB (0%)
Language                                 : Tamil
Default                                  : No
Forced                                   : No

Text #38
ID                                       : 40
Format                                   : UTF-8
Codec ID                                 : S_TEXT/UTF8
Codec ID/Info                            : UTF-8 Plain Text
Duration                                 : 48 min 48 s
Bit rate                                 : 163 b/s
Frame rate                               : 0.195 FPS
Count of elements                        : 571
Stream size                              : 58.5 KiB (0%)
Language                                 : Telugu
Default                                  : No
Forced                                   : No

Text #39
ID                                       : 41
Format                                   : UTF-8
Codec ID                                 : S_TEXT/UTF8
Codec ID/Info                            : UTF-8 Plain Text
Duration                                 : 48 min 48 s
Bit rate                                 : 106 b/s
Frame rate                               : 0.195 FPS
Count of elements                        : 571
Stream size                              : 38.1 KiB (0%)
Language                                 : Thai
Default                                  : No
Forced                                   : No

Text #40
ID                                       : 42
Format                                   : UTF-8
Codec ID                                 : S_TEXT/UTF8
Codec ID/Info                            : UTF-8 Plain Text
Duration                                 : 48 min 48 s
Bit rate                                 : 51 b/s
Frame rate                               : 0.190 FPS
Count of elements                        : 557
Stream size                              : 18.4 KiB (0%)
Language                                 : Turkish
Default                                  : No
Forced                                   : No

Text #41
ID                                       : 43
Format                                   : UTF-8
Codec ID                                 : S_TEXT/UTF8
Codec ID/Info                            : UTF-8 Plain Text
Duration                                 : 48 min 48 s
Bit rate                                 : 77 b/s
Frame rate                               : 0.195 FPS
Count of elements                        : 570
Stream size                              : 27.6 KiB (0%)
Language                                 : Ukrainian
Default                                  : No
Forced                                   : No

Text #42
ID                                       : 44
Format                                   : UTF-8
Codec ID                                 : S_TEXT/UTF8
Codec ID/Info                            : UTF-8 Plain Text
Duration                                 : 48 min 48 s
Bit rate                                 : 68 b/s
Frame rate                               : 0.195 FPS
Count of elements                        : 570
Stream size                              : 24.6 KiB (0%)
Language                                 : Vietnamese
Default                                  : No
Forced                                   : No

Text #43
ID                                       : 45
Format                                   : UTF-8
Codec ID                                 : S_TEXT/UTF8
Codec ID/Info                            : UTF-8 Plain Text
Duration                                 : 48 min 48 s
Bit rate                                 : 40 b/s
Frame rate                               : 0.195 FPS
Count of elements                        : 572
Stream size                              : 14.6 KiB (0%)
Title                                    : Chinese (Traditional)
Language                                 : Chinese (Traditional)
Default                                  : No
Forced                                   : No

Menu
00:00:00.000                             : en:Chapter 1
00:04:35.332                             : en:Intro
00:06:36.165                             : en:Chapter 2



Download
File Container: MKV
Video/Audio Codec: H264 (HIGH) EAC3
Video Resolution: 1918x802

2 Responses to "[RR/NF] Masters of the Air S01E07 Part Seven 1080p ATVP WEB-DL DDP5 1 H 264-NTb (3.7GB)"
03/01/24
07:27:56
ReadyPlayerOne

Thank You

03/01/24
22:17:48
ReadyPlayerOne

Thank you!

Please Login to post a comment.
If you don't have any account, please Register.
  • Subscribe my Feeds
  • Facebook
Encoding Queue:  x264  x265

Latest Episodes

Popular Movies and TV Shows

  • Beacon 23
  • Parish
  • Saturday Night Live
  • North Korea: Inside the Mind of a Dictator
  • Willow
  • Immoral Women
  • Riddle of Fire
  • A Gentleman in Moscow
  • Bluey
  • Scrambled
  • 48 Hours
  • Blue Bloods
  • Grey's Anatomy
  • S.W.A.T.
  • Pacific Rim: Uprising
  • The War on Children
  • Sleeping Dogs
  • Fallout
  • Fire Country
  • Star Trek: Discovery
  • T2 Trainspotting
  • Whiplash
  • Damaged
  • Sugar
  • Young Sheldon

Recent Comments

  • DownloadHostInspector:

    so far these RMTeam uploads always have a working link. DownloadHostInspector approved!

  • DownloadHostInspector:

    ah yes, this upload has a host that works. clicknupload. DownloadHostInspector approved!

  • DownloadHostInspector: Why are all the download hosts trash? none of them let you download it
  • Qua4ratic:

    clicknupload link plz

  • ppoo:

    Please, can you add "Real Time with Bill Maher S22E11" ??

  • theahtisham:

    Kindly upload Ep. 3 and 4 as well.

  • Kudzu: Update on sound issue, File's codec info says stereo but is only a the left channel If I switch i...
  • Admin:

    kang
    Getting error while encoding, sorry

  • rambaldi70:

    sorry this release ok.
    but descripton is bad
    (Duration: 2h56m7s)

Archives