Sign Up   |   Sign In  
The ChiSistasThe Big CigarI Saw the TV GlowThe EgyptianNotas sobre un veranoThe Bold and the BeautifulYoung SheldonModern FamilyGoodbye Uncle TomLSD 2: Love, Sex Aur Dhokha 2The PrestigeThe BoysWWE NXTWalkerMower MinionsBratsAssimilateEvilBridgertonCriminal MindsIn the Line of FireThe Artifice GirlLamp LifeThe Daily Show

Announcements

05/17

2024

No

Comments

Modern Family S11E01 1080p DSNP WEB-DL DDP5 1 H 264-FLUX
[RR/NF/CU]
Size: 1.3GB mkv H264 (HIGH) / EAC3  HD  1920x1080

Modern Family
File Information
[img]http://lookpic.com/cdn/i2/t/0517202408334610-1.jpg[/img]
[img]http://lookpic.com/cdn/i2/t/0517202408334610-2.jpg[/img]
[img]http://lookpic.com/cdn/i2/t/0517202408334610-3.jpg[/img]

General
Unique ID                                : 250054120407220157527834098152822699371 (0xBC1EABFC757CE86DAB810A9E1DCA756B)
Complete name                            : Modern Family S11E01 1080p DSNP WEB-DL DDP5 1 H 264-FLUX.mkv
Format                                   : Matroska
Format version                           : Version 4
File size                                : 1.31 GiB
Duration                                 : 21 min 27 s
Overall bit rate mode                    : Variable
Overall bit rate                         : 8 752 kb/s
Frame rate                               : 23.976 FPS
Writing application                      : mkvmerge v72.0.0 ('Minuano (Six-eight)') 64-bit
Writing library                          : libebml v1.4.4 + libmatroska v1.7.1

Video
ID                                       : 1
Format                                   : AVC
Format/Info                              : Advanced Video Codec
Format profile                           : High@L4
Format settings                          : CABAC / 4 Ref Frames
Format settings, CABAC                   : Yes
Format settings, Reference frames        : 4 frames
Codec ID                                 : V_MPEG4/ISO/AVC
Duration                                 : 21 min 26 s
Bit rate mode                            : Variable
Bit rate                                 : 8 489 kb/s
Maximum bit rate                         : 12.7 Mb/s
Width                                    : 1 920 pixels
Height                                   : 1 080 pixels
Display aspect ratio                     : 16:9
Frame rate mode                          : Constant
Frame rate                               : 23.976 (24000/1001) FPS
Color space                              : YUV
Chroma subsampling                       : 4:2:0
Bit depth                                : 8 bits
Scan type                                : Progressive
Bits/(Pixel*Frame)                       : 0.171
Time code of first frame                 : 00:00:00:0000000000
Stream size                              : 1.27 GiB (97%)
Language                                 : English
Default                                  : Yes
Forced                                   : No
Color range                              : Limited
Color primaries                          : BT.709
Transfer characteristics                 : BT.709
Matrix coefficients                      : BT.709

Audio
ID                                       : 2
Format                                   : E-AC-3
Format/Info                              : Enhanced AC-3
Commercial name                          : Dolby Digital Plus
Codec ID                                 : A_EAC3
Duration                                 : 21 min 27 s
Bit rate mode                            : Constant
Bit rate                                 : 256 kb/s
Channel(s)                               : 6 channels
Channel layout                           : L R C LFE Ls Rs
Sampling rate                            : 48.0 kHz
Frame rate                               : 31.250 FPS (1536 SPF)
Compression mode                         : Lossy
Stream size                              : 39.3 MiB (3%)
Language                                 : English
Service kind                             : Complete Main
Default                                  : Yes
Forced                                   : No

Text #1
ID                                       : 3
Format                                   : UTF-8
Codec ID                                 : S_TEXT/UTF8
Codec ID/Info                            : UTF-8 Plain Text
Duration                                 : 20 min 55 s
Bit rate                                 : 113 b/s
Frame rate                               : 0.352 FPS
Count of elements                        : 442
Stream size                              : 17.4 KiB (0%)
Language                                 : English
Default                                  : No
Forced                                   : No

Text #2
ID                                       : 4
Format                                   : UTF-8
Codec ID                                 : S_TEXT/UTF8
Codec ID/Info                            : UTF-8 Plain Text
Duration                                 : 21 min 17 s
Bit rate                                 : 118 b/s
Frame rate                               : 0.375 FPS
Count of elements                        : 479
Stream size                              : 18.5 KiB (0%)
Title                                    : SDH
Language                                 : English
Default                                  : No
Forced                                   : No

Text #3
ID                                       : 5
Format                                   : UTF-8
Codec ID                                 : S_TEXT/UTF8
Codec ID/Info                            : UTF-8 Plain Text
Duration                                 : 21 min 4 s
Bit rate                                 : 97 b/s
Frame rate                               : 0.335 FPS
Count of elements                        : 424
Stream size                              : 15.0 KiB (0%)
Language                                 : Czech
Default                                  : No
Forced                                   : No

Text #4
ID                                       : 6
Format                                   : UTF-8
Codec ID                                 : S_TEXT/UTF8
Codec ID/Info                            : UTF-8 Plain Text
Duration                                 : 21 min 6 s
Bit rate                                 : 109 b/s
Frame rate                               : 0.335 FPS
Count of elements                        : 425
Stream size                              : 17.0 KiB (0%)
Language                                 : Danish
Default                                  : No
Forced                                   : No

Text #5
ID                                       : 7
Format                                   : UTF-8
Codec ID                                 : S_TEXT/UTF8
Codec ID/Info                            : UTF-8 Plain Text
Duration                                 : 21 min 8 s
Bit rate                                 : 112 b/s
Frame rate                               : 0.336 FPS
Count of elements                        : 426
Stream size                              : 17.4 KiB (0%)
Language                                 : German
Default                                  : No
Forced                                   : No

Text #6
ID                                       : 8
Format                                   : UTF-8
Codec ID                                 : S_TEXT/UTF8
Codec ID/Info                            : UTF-8 Plain Text
Duration                                 : 21 min 7 s
Bit rate                                 : 200 b/s
Frame rate                               : 0.335 FPS
Count of elements                        : 425
Stream size                              : 31.0 KiB (0%)
Language                                 : Greek
Default                                  : No
Forced                                   : No

Text #7
ID                                       : 9
Format                                   : UTF-8
Codec ID                                 : S_TEXT/UTF8
Codec ID/Info                            : UTF-8 Plain Text
Duration                                 : 21 min 8 s
Bit rate                                 : 108 b/s
Frame rate                               : 0.336 FPS
Count of elements                        : 426
Stream size                              : 16.8 KiB (0%)
Title                                    : Latin American
Language                                 : Spanish (Latin America)
Default                                  : No
Forced                                   : No

Text #8
ID                                       : 10
Format                                   : UTF-8
Codec ID                                 : S_TEXT/UTF8
Codec ID/Info                            : UTF-8 Plain Text
Duration                                 : 21 min 9 s
Bit rate                                 : 113 b/s
Frame rate                               : 0.336 FPS
Count of elements                        : 426
Stream size                              : 17.6 KiB (0%)
Language                                 : Spanish (ES)
Default                                  : No
Forced                                   : No

Text #9
ID                                       : 11
Format                                   : UTF-8
Codec ID                                 : S_TEXT/UTF8
Codec ID/Info                            : UTF-8 Plain Text
Duration                                 : 21 min 8 s
Bit rate                                 : 87 b/s
Frame rate                               : 0.335 FPS
Count of elements                        : 425
Stream size                              : 13.6 KiB (0%)
Language                                 : Finnish
Default                                  : No
Forced                                   : No

Text #10
ID                                       : 12
Format                                   : UTF-8
Codec ID                                 : S_TEXT/UTF8
Codec ID/Info                            : UTF-8 Plain Text
Duration                                 : 21 min 8 s
Bit rate                                 : 102 b/s
Frame rate                               : 0.318 FPS
Count of elements                        : 404
Stream size                              : 15.8 KiB (0%)
Language                                 : French (FR)
Default                                  : No
Forced                                   : No

Text #11
ID                                       : 13
Format                                   : UTF-8
Codec ID                                 : S_TEXT/UTF8
Codec ID/Info                            : UTF-8 Plain Text
Duration                                 : 21 min 7 s
Bit rate                                 : 103 b/s
Frame rate                               : 0.335 FPS
Count of elements                        : 425
Stream size                              : 16.0 KiB (0%)
Language                                 : Hungarian
Default                                  : No
Forced                                   : No

Text #12
ID                                       : 14
Format                                   : UTF-8
Codec ID                                 : S_TEXT/UTF8
Codec ID/Info                            : UTF-8 Plain Text
Duration                                 : 21 min 8 s
Bit rate                                 : 111 b/s
Frame rate                               : 0.336 FPS
Count of elements                        : 426
Stream size                              : 17.2 KiB (0%)
Language                                 : Italian
Default                                  : No
Forced                                   : No

Text #13
ID                                       : 15
Format                                   : UTF-8
Codec ID                                 : S_TEXT/UTF8
Codec ID/Info                            : UTF-8 Plain Text
Duration                                 : 21 min 9 s
Bit rate                                 : 86 b/s
Frame rate                               : 0.312 FPS
Count of elements                        : 396
Stream size                              : 13.5 KiB (0%)
Language                                 : Japanese
Default                                  : No
Forced                                   : No

Text #14
ID                                       : 16
Format                                   : UTF-8
Codec ID                                 : S_TEXT/UTF8
Codec ID/Info                            : UTF-8 Plain Text
Duration                                 : 21 min 8 s
Bit rate                                 : 118 b/s
Frame rate                               : 0.336 FPS
Count of elements                        : 426
Stream size                              : 18.3 KiB (0%)
Language                                 : Korean
Default                                  : No
Forced                                   : No

Text #15
ID                                       : 17
Format                                   : UTF-8
Codec ID                                 : S_TEXT/UTF8
Codec ID/Info                            : UTF-8 Plain Text
Duration                                 : 20 min 59 s
Bit rate                                 : 102 b/s
Frame rate                               : 0.338 FPS
Count of elements                        : 425
Stream size                              : 15.7 KiB (0%)
Language                                 : Dutch
Default                                  : No
Forced                                   : No

Text #16
ID                                       : 18
Format                                   : UTF-8
Codec ID                                 : S_TEXT/UTF8
Codec ID/Info                            : UTF-8 Plain Text
Duration                                 : 21 min 8 s
Bit rate                                 : 105 b/s
Frame rate                               : 0.335 FPS
Count of elements                        : 425
Stream size                              : 16.3 KiB (0%)
Language                                 : Norwegian
Default                                  : No
Forced                                   : No

Text #17
ID                                       : 19
Format                                   : UTF-8
Codec ID                                 : S_TEXT/UTF8
Codec ID/Info                            : UTF-8 Plain Text
Duration                                 : 21 min 8 s
Bit rate                                 : 96 b/s
Frame rate                               : 0.335 FPS
Count of elements                        : 425
Stream size                              : 14.9 KiB (0%)
Language                                 : Polish
Default                                  : No
Forced                                   : No

Text #18
ID                                       : 20
Format                                   : UTF-8
Codec ID                                 : S_TEXT/UTF8
Codec ID/Info                            : UTF-8 Plain Text
Duration                                 : 21 min 8 s
Bit rate                                 : 97 b/s
Frame rate                               : 0.335 FPS
Count of elements                        : 425
Stream size                              : 15.1 KiB (0%)
Title                                    : Brazilian
Language                                 : Portuguese (BR)
Default                                  : No
Forced                                   : No

Text #19
ID                                       : 21
Format                                   : UTF-8
Codec ID                                 : S_TEXT/UTF8
Codec ID/Info                            : UTF-8 Plain Text
Duration                                 : 21 min 8 s
Bit rate                                 : 100 b/s
Frame rate                               : 0.335 FPS
Count of elements                        : 425
Stream size                              : 15.6 KiB (0%)
Language                                 : Portuguese (PT)
Default                                  : No
Forced                                   : No

Text #20
ID                                       : 22
Format                                   : UTF-8
Codec ID                                 : S_TEXT/UTF8
Codec ID/Info                            : UTF-8 Plain Text
Duration                                 : 21 min 7 s
Bit rate                                 : 102 b/s
Frame rate                               : 0.335 FPS
Count of elements                        : 425
Stream size                              : 15.8 KiB (0%)
Language                                 : Romanian
Default                                  : No
Forced                                   : No

Text #21
ID                                       : 23
Format                                   : UTF-8
Codec ID                                 : S_TEXT/UTF8
Codec ID/Info                            : UTF-8 Plain Text
Duration                                 : 21 min 8 s
Bit rate                                 : 104 b/s
Frame rate                               : 0.335 FPS
Count of elements                        : 425
Stream size                              : 16.3 KiB (0%)
Language                                 : Swedish
Default                                  : No
Forced                                   : No

Text #22
ID                                       : 24
Format                                   : UTF-8
Codec ID                                 : S_TEXT/UTF8
Codec ID/Info                            : UTF-8 Plain Text
Duration                                 : 21 min 7 s
Bit rate                                 : 114 b/s
Frame rate                               : 0.335 FPS
Count of elements                        : 425
Stream size                              : 17.7 KiB (0%)
Language                                 : Turkish
Default                                  : No
Forced                                   : No

Text #23
ID                                       : 25
Format                                   : UTF-8
Codec ID                                 : S_TEXT/UTF8
Codec ID/Info                            : UTF-8 Plain Text
Duration                                 : 21 min 6 s
Bit rate                                 : 101 b/s
Frame rate                               : 0.336 FPS
Count of elements                        : 426
Stream size                              : 15.7 KiB (0%)
Title                                    : Simplified
Language                                 : Chinese (Simplified)
Default                                  : No
Forced                                   : No

Text #24
ID                                       : 26
Format                                   : UTF-8
Codec ID                                 : S_TEXT/UTF8
Codec ID/Info                            : UTF-8 Plain Text
Duration                                 : 21 min 8 s
Bit rate                                 : 97 b/s
Frame rate                               : 0.336 FPS
Count of elements                        : 426
Stream size                              : 15.1 KiB (0%)
Title                                    : Traditional
Language                                 : Chinese (Traditional)
Default                                  : No
Forced                                   : No

Menu
00:03:08.939                             : en:Intro
00:03:21.326                             : en:Scene 1
00:20:58.258                             : en:Credits



Download
File Container: MKV
Video/Audio Codec: H264 (HIGH) EAC3
Video Resolution: 1920x1080
Please Login to post a comment.
If you don't have any account, please Register.
  • Subscribe my Feeds
  • Facebook
Encoding Queue:  x264  x265

Latest Episodes

Popular Movies and TV Shows

  • The Chi
  • Sistas
  • The Big Cigar
  • I Saw the TV Glow
  • The Egyptian
  • Notas sobre un verano
  • The Bold and the Beautiful
  • Young Sheldon
  • Modern Family
  • Goodbye Uncle Tom
  • LSD 2: Love, Sex Aur Dhokha 2
  • The Prestige
  • The Boys
  • WWE NXT
  • Walker
  • Mower Minions
  • Brats
  • Assimilate
  • Evil
  • Bridgerton
  • Criminal Minds
  • In the Line of Fire
  • The Artifice Girl
  • Lamp Life
  • The Daily Show

Recent Comments

Archives