Sign Up   |   Sign In  
Red Right HandUndead UnluckResident AlienThe Heartbreak KidEasy StreetLaw & Order: Organized CrimeYoung SheldonAvatar: The Last AirbenderSo Help Me ToddLovely, Dark, and DeepTurtles Can FlyHistory of EvilMasters of the AirGhostsLaw & Order Toronto: Criminal IntentJenny Slate: Seasoned ProfessionalEarwormTiger StripesHaloHightownLaw & Order: Special Victims UnitCellphoneMoonedThe Last AirbenderConstellation

Announcements

02/12

2024

1

Comments

Monsieur Spade S01E05 1080p AMZN WEB-DL DDP5 1 H 264-NTb
[RR/NF]
Size: 3GB mkv H264 (HIGH) / EAC3  HD  1920x1040

Monsieur Spade
File Information
[img]http://lookpic.com/cdn/i2/t/0211202421503205-1.jpg[/img]
[img]http://lookpic.com/cdn/i2/t/0211202421503205-2.jpg[/img]
[img]http://lookpic.com/cdn/i2/t/0211202421503205-3.jpg[/img]

General
Unique ID                                : 304254826713281503901299003971210802417 (0xE4E559204D6B7B78BBEEB3D202C774F1)
Complete name                            : Monsieur.Spade.S01E05.1080p.AMZN.WEB-DL.DDP5.1.H.264-NTb.mkv
Format                                   : Matroska
Format version                           : Version 4
File size                                : 3.02 GiB
Duration                                 : 53 min 29 s
Overall bit rate                         : 8 077 kb/s
Frame rate                               : 23.976 FPS
Writing application                      : mkvmerge v80.0 ('Roundabout') 64-bit
Writing library                          : libebml v1.4.4 + libmatroska v1.7.1

Video
ID                                       : 1
Format                                   : AVC
Format/Info                              : Advanced Video Codec
Format profile                           : High@L4
Format settings                          : CABAC / 4 Ref Frames
Format settings, CABAC                   : Yes
Format settings, Reference frames        : 4 frames
Codec ID                                 : V_MPEG4/ISO/AVC
Duration                                 : 53 min 29 s
Bit rate mode                            : Constant
Bit rate                                 : 7 435 kb/s
Nominal bit rate                         : 10 000 kb/s
Width                                    : 1 920 pixels
Height                                   : 1 040 pixels
Display aspect ratio                     : 1.85:1
Frame rate mode                          : Constant
Frame rate                               : 23.976 (24000/1001) FPS
Color space                              : YUV
Chroma subsampling                       : 4:2:0
Bit depth                                : 8 bits
Scan type                                : Progressive
Bits/(Pixel*Frame)                       : 0.155
Stream size                              : 2.78 GiB (92%)
Default                                  : Yes
Forced                                   : No
Color range                              : Limited
Color primaries                          : BT.709
Transfer characteristics                 : BT.709
Matrix coefficients                      : BT.709

Audio
ID                                       : 2
Format                                   : E-AC-3
Format/Info                              : Enhanced AC-3
Commercial name                          : Dolby Digital Plus
Codec ID                                 : A_EAC3
Duration                                 : 53 min 29 s
Bit rate mode                            : Constant
Bit rate                                 : 640 kb/s
Channel(s)                               : 6 channels
Channel layout                           : L R C LFE Ls Rs
Sampling rate                            : 48.0 kHz
Frame rate                               : 31.250 FPS (1536 SPF)
Compression mode                         : Lossy
Stream size                              : 245 MiB (8%)
Language                                 : English (US)
Service kind                             : Complete Main
Default                                  : Yes
Forced                                   : No

Text #1
ID                                       : 3
Format                                   : UTF-8
Codec ID                                 : S_TEXT/UTF8
Codec ID/Info                            : UTF-8 Plain Text
Duration                                 : 53 min 18 s
Bit rate                                 : 34 b/s
Frame rate                               : 0.127 FPS
Count of elements                        : 407
Stream size                              : 13.4 KiB (0%)
Language                                 : English (US)
Default                                  : No
Forced                                   : No

Text #2
ID                                       : 4
Format                                   : UTF-8
Codec ID                                 : S_TEXT/UTF8
Codec ID/Info                            : UTF-8 Plain Text
Duration                                 : 53 min 21 s
Bit rate                                 : 47 b/s
Frame rate                               : 0.228 FPS
Count of elements                        : 730
Stream size                              : 18.4 KiB (0%)
Title                                    : SDH
Language                                 : English (US)
Default                                  : No
Forced                                   : No



Download
File Container: MKV
Video/Audio Codec: H264 (HIGH) EAC3
Video Resolution: 1920x1040

1 Response to "[RR/NF] Monsieur Spade S01E05 1080p AMZN WEB-DL DDP5 1 H 264-NTb (3GB)"
02/12/24
08:28:50
ReadyPlayerOne

Thank You

Please Login to post a comment.
If you don't have any account, please Register.
  • Subscribe my Feeds
  • Facebook

Latest Episodes

Popular Movies and TV Shows

  • Red Right Hand
  • Undead Unluck
  • Resident Alien
  • The Heartbreak Kid
  • Easy Street
  • Law & Order: Organized Crime
  • Young Sheldon
  • Avatar: The Last Airbender
  • So Help Me Todd
  • Lovely, Dark, and Deep
  • Turtles Can Fly
  • History of Evil
  • Masters of the Air
  • Ghosts
  • Law & Order Toronto: Criminal Intent
  • Jenny Slate: Seasoned Professional
  • Earworm
  • Tiger Stripes
  • Halo
  • Hightown
  • Law & Order: Special Victims Unit
  • Cellphone
  • Mooned
  • The Last Airbender
  • Constellation

Recent Comments

Archives