Sign Up   |   Sign In  
Red Right HandUndead UnluckResident AlienTurtles Can FlyThe Heartbreak KidGeniusYoung SheldonSo Help Me ToddGhostsLovely, Dark, and DeepHistory of EvilThe GoatMasters of the AirAvatar: The Last AirbenderLaw & Order Toronto: Criminal IntentEarwormJenny Slate: Seasoned ProfessionalTiger StripesHaloHightownLaw & Order: Special Victims UnitCellphoneMoonedThe Last AirbenderConstellation

Announcements

02/12

2024

1

Comments

Monsieur Spade S01E05 720p AMZN WEB-DL DDP5 1 H 264-NTb
[RR/NF/CU]
Size: 1.5GB mkv H264 (HIGH) / EAC3  HD  1280x688

Monsieur Spade
File Information
[img]http://lookpic.com/cdn/i2/t/0211202421514336-1.jpg[/img]
[img]http://lookpic.com/cdn/i2/t/0211202421514336-2.jpg[/img]
[img]http://lookpic.com/cdn/i2/t/0211202421514336-3.jpg[/img]

General
Unique ID                                : 273101145818609970784346851962212201635 (0xCD755E11B7C3873EA283CA8D5ACE34A3)
Complete name                            : Monsieur.Spade.S01E05.720p.AMZN.WEB-DL.DDP5.1.H.264-NTb.mkv
Format                                   : Matroska
Format version                           : Version 4
File size                                : 1.53 GiB
Duration                                 : 53 min 29 s
Overall bit rate                         : 4 096 kb/s
Frame rate                               : 23.976 FPS
Writing application                      : mkvmerge v80.0 ('Roundabout') 64-bit
Writing library                          : libebml v1.4.4 + libmatroska v1.7.1

Video
ID                                       : 1
Format                                   : AVC
Format/Info                              : Advanced Video Codec
Format profile                           : High@L3.1
Format settings                          : CABAC / 4 Ref Frames
Format settings, CABAC                   : Yes
Format settings, Reference frames        : 4 frames
Codec ID                                 : V_MPEG4/ISO/AVC
Duration                                 : 53 min 29 s
Bit rate mode                            : Constant
Bit rate                                 : 3 454 kb/s
Nominal bit rate                         : 6 000 kb/s
Width                                    : 1 280 pixels
Height                                   : 688 pixels
Display aspect ratio                     : 1.85:1
Frame rate mode                          : Constant
Frame rate                               : 23.976 (24000/1001) FPS
Color space                              : YUV
Chroma subsampling                       : 4:2:0
Bit depth                                : 8 bits
Scan type                                : Progressive
Bits/(Pixel*Frame)                       : 0.164
Stream size                              : 1.29 GiB (84%)
Default                                  : Yes
Forced                                   : No
Color range                              : Limited
Color primaries                          : BT.709
Transfer characteristics                 : BT.709
Matrix coefficients                      : BT.709

Audio
ID                                       : 2
Format                                   : E-AC-3
Format/Info                              : Enhanced AC-3
Commercial name                          : Dolby Digital Plus
Codec ID                                 : A_EAC3
Duration                                 : 53 min 29 s
Bit rate mode                            : Constant
Bit rate                                 : 640 kb/s
Channel(s)                               : 6 channels
Channel layout                           : L R C LFE Ls Rs
Sampling rate                            : 48.0 kHz
Frame rate                               : 31.250 FPS (1536 SPF)
Compression mode                         : Lossy
Stream size                              : 245 MiB (16%)
Language                                 : English (US)
Service kind                             : Complete Main
Default                                  : Yes
Forced                                   : No

Text #1
ID                                       : 3
Format                                   : UTF-8
Codec ID                                 : S_TEXT/UTF8
Codec ID/Info                            : UTF-8 Plain Text
Duration                                 : 53 min 18 s
Bit rate                                 : 34 b/s
Frame rate                               : 0.127 FPS
Count of elements                        : 407
Stream size                              : 13.4 KiB (0%)
Language                                 : English (US)
Default                                  : No
Forced                                   : No

Text #2
ID                                       : 4
Format                                   : UTF-8
Codec ID                                 : S_TEXT/UTF8
Codec ID/Info                            : UTF-8 Plain Text
Duration                                 : 53 min 21 s
Bit rate                                 : 47 b/s
Frame rate                               : 0.228 FPS
Count of elements                        : 730
Stream size                              : 18.4 KiB (0%)
Title                                    : SDH
Language                                 : English (US)
Default                                  : No
Forced                                   : No



Download
File Container: MKV
Video/Audio Codec: H264 (HIGH) EAC3
Video Resolution: 1280x688

1 Response to "[RR/NF/CU] Monsieur Spade S01E05 720p AMZN WEB-DL DDP5 1 H 264-NTb (1.5GB)"
02/12/24
08:29:56
ReadyPlayerOne

Thank You

Please Login to post a comment.
If you don't have any account, please Register.
  • Subscribe my Feeds
  • Facebook

Latest Episodes

Popular Movies and TV Shows

  • Red Right Hand
  • Undead Unluck
  • Resident Alien
  • Turtles Can Fly
  • The Heartbreak Kid
  • Genius
  • Young Sheldon
  • So Help Me Todd
  • Ghosts
  • Lovely, Dark, and Deep
  • History of Evil
  • The Goat
  • Masters of the Air
  • Avatar: The Last Airbender
  • Law & Order Toronto: Criminal Intent
  • Earworm
  • Jenny Slate: Seasoned Professional
  • Tiger Stripes
  • Halo
  • Hightown
  • Law & Order: Special Victims Unit
  • Cellphone
  • Mooned
  • The Last Airbender
  • Constellation

Recent Comments

Archives