Sign Up   |   Sign In  
Mayor of KingstownHotel CocaineMy Adventures with SupermanLook to the LightDaaaaaali!You Can Live ForeverInterview with the VampirePrincess PowerBilly the KidOctopussyA Ring of Endless LightReady to RunLadies in BlackThe Bold and the BeautifulReal Time with Bill MaherKung Fu HustleLicence to KillThere's Something About MaryWWE NXTThe Loud HouseWalkerVice News Presents: Mass Shooting AmericaInside Out 2My Sexual Abuse: The SitcomThe Daily Show

Announcements

05/26

2024

No

Comments

My Adventures with Superman S02E02 Adventures With My Girlfriend 1080p Hybrid MAX WEB-DL DDP5 1 x264-NTb
[RR/NF/CU]
Size: 415MB mkv H264 (HIGH) / EAC3  HD  1920x1080

My Adventures with Superman
File Information
[img]http://lookpic.com/cdn/i2/t/0526202417401730-1.jpg[/img]
[img]http://lookpic.com/cdn/i2/t/0526202417401730-2.jpg[/img]
[img]http://lookpic.com/cdn/i2/t/0526202417401730-3.jpg[/img]

General
Unique ID                                : 283210607901558925794674092036100013842 (0xD51061084756DA1B56160FF06FF13F12)
Complete name                            : My Adventures with Superman S02E02 Adventures With My Girlfriend 1080p Hybrid MAX WEB-DL DDP5 1 x264-NTb.mkv
Format                                   : Matroska
Format version                           : Version 4
File size                                : 416 MiB
Duration                                 : 22 min 32 s
Overall bit rate mode                    : Variable
Overall bit rate                         : 2 579 kb/s
Frame rate                               : 23.976 FPS
Writing application                      : mkvmerge v81.0 ('Milliontown') 64-bit
Writing library                          : libebml v1.4.4 + libmatroska v1.7.1

Video
ID                                       : 1
Format                                   : AVC
Format/Info                              : Advanced Video Codec
Format profile                           : High@L4.1
Format settings                          : CABAC / 4 Ref Frames
Format settings, CABAC                   : Yes
Format settings, Reference frames        : 4 frames
Codec ID                                 : V_MPEG4/ISO/AVC
Duration                                 : 22 min 32 s
Bit rate mode                            : Variable
Bit rate                                 : 1 936 kb/s
Maximum bit rate                         : 10 000 kb/s
Width                                    : 1 920 pixels
Height                                   : 1 080 pixels
Display aspect ratio                     : 16:9
Frame rate mode                          : Constant
Frame rate                               : 23.976 (24000/1001) FPS
Color space                              : YUV
Chroma subsampling                       : 4:2:0
Bit depth                                : 8 bits
Scan type                                : Progressive
Bits/(Pixel*Frame)                       : 0.039
Stream size                              : 312 MiB (75%)
Writing library                          : x264 core 164
 Encoding settings                        : cabac=1 / ref=4 / deblock=1:0:0 / analyse=0x3:0x133 / me=umh / subme=10 / psy=1 / psy_rd=1.00:0.00 / mixed_ref=1 / me_range=24 / chroma_me=1 / trellis=2 / 8x8dct=1 / cqm=0 / deadz / fast pskip=1 / chroma_qp_offset=-2 / threads=24 / lookahead_threads=2 / sliced_threads=0 / nr=0 / decimate=1 / interlaced=0 / bluray_compat=0 / stitchable=1 / c / bframes=3 / b_pyramid=2 / b_adapt=2 / b_bias=0 / direct=3 / weightb=1 / open_gop=0 / weightp=2 / keyint=96 / keyint_min=49 / scenecut=0 / intra_refresh=0 / rc_lookahead=96 / rc=crf / mbtree=1 / crf=20.0 / qcomp=0.60 / qpmin=0 / qpmax=69 / qpstep=4 / vbv_maxrate=10000 / vbv_bufsize=40000 / crf_max=0.0 / nal_hrd=vbr / filler=0 / ip_ratio=1.40 / aq=1:1.00
Default                                  : Yes
Forced                                   : No
Color range                              : Limited
Color primaries                          : BT.709
Transfer characteristics                 : BT.709
Matrix coefficients                      : BT.709

Audio
ID                                       : 2
Format                                   : E-AC-3
Format/Info                              : Enhanced AC-3
Commercial name                          : Dolby Digital Plus
Codec ID                                 : A_EAC3
Duration                                 : 22 min 32 s
Bit rate mode                            : Constant
Bit rate                                 : 640 kb/s
Channel(s)                               : 6 channels
Channel layout                           : L R C LFE Ls Rs
Sampling rate                            : 48.0 kHz
Frame rate                               : 31.250 FPS (1536 SPF)
Compression mode                         : Lossy
Stream size                              : 103 MiB (25%)
Language                                 : English
Service kind                             : Complete Main
Default                                  : Yes
Forced                                   : No

Text #1
ID                                       : 3
Format                                   : UTF-8
Codec ID                                 : S_TEXT/UTF8
Codec ID/Info                            : UTF-8 Plain Text
Duration                                 : 21 min 44 s
Bit rate                                 : 76 b/s
Frame rate                               : 0.267 FPS
Count of elements                        : 348
Stream size                              : 12.2 KiB (0%)
Language                                 : English (US)
Default                                  : No
Forced                                   : No

Text #2
ID                                       : 4
Format                                   : UTF-8
Codec ID                                 : S_TEXT/UTF8
Codec ID/Info                            : UTF-8 Plain Text
Duration                                 : 21 min 56 s
Bit rate                                 : 84 b/s
Frame rate                               : 0.311 FPS
Count of elements                        : 409
Stream size                              : 13.6 KiB (0%)
Title                                    : SDH
Language                                 : English (US)
Default                                  : No
Forced                                   : No

Text #3
ID                                       : 5
Format                                   : UTF-8
Codec ID                                 : S_TEXT/UTF8
Codec ID/Info                            : UTF-8 Plain Text
Duration                                 : 21 min 44 s
Bit rate                                 : 75 b/s
Frame rate                               : 0.252 FPS
Count of elements                        : 329
Stream size                              : 12.0 KiB (0%)
Language                                 : Spanish (Latin America)
Default                                  : No
Forced                                   : No

Text #4
ID                                       : 6
Format                                   : UTF-8
Codec ID                                 : S_TEXT/UTF8
Codec ID/Info                            : UTF-8 Plain Text
Duration                                 : 21 min 44 s
Bit rate                                 : 76 b/s
Frame rate                               : 0.249 FPS
Count of elements                        : 325
Stream size                              : 12.1 KiB (0%)
Language                                 : Portuguese (BR)
Default                                  : No
Forced                                   : No

Menu
00:00:00.000                             : Chapter 1
00:01:14.616                             : Intro
00:01:34.512                             : Chapter 2
00:09:28.150                             : Chapter 3
00:15:32.056                             : Chapter 4
00:22:02.696                             : Credits



Download
File Container: MKV
Video/Audio Codec: H264 (HIGH) EAC3
Video Resolution: 1920x1080
Please Login to post a comment.
If you don't have any account, please Register.
  • Subscribe my Feeds
  • Facebook
Encoding Queue:  x264  x265

Latest Episodes

Popular Movies and TV Shows

  • Mayor of Kingstown
  • Hotel Cocaine
  • My Adventures with Superman
  • Look to the Light
  • Daaaaaali!
  • You Can Live Forever
  • Interview with the Vampire
  • Princess Power
  • Billy the Kid
  • Octopussy
  • A Ring of Endless Light
  • Ready to Run
  • Ladies in Black
  • The Bold and the Beautiful
  • Real Time with Bill Maher
  • Kung Fu Hustle
  • Licence to Kill
  • There's Something About Mary
  • WWE NXT
  • The Loud House
  • Walker
  • Vice News Presents: Mass Shooting America
  • Inside Out 2
  • My Sexual Abuse: The Sitcom
  • The Daily Show

Recent Comments

Archives