Sign Up   |   Sign In  

Announcements

Want to support us?
Buy a RapidRAR account from our resellers:
Buy or renew a NitroFlare account via THIS LINK

04/17

2017

No

Comments

Once Upon a Time S06E17 1080p WEB-DL DD5 1 H264-RARBG
[RR/NF/UL/UR]
Size: 1.7GB mkv H264 (HIGH) / AC3  HD  1920x1080

Once Upon a Time
Click on the image to see full size
[RR/NF/UL/UR] Once Upon a Time S06E17 1080p WEB-DL DD5 1 H264-RARBG (1.7GB) - Snapshot 1
File Information
[URL=http://imagecurl.com/viewer.php?file=05466217356069376162.png][IMG]http://imagecurl.com/images/05466217356069376162_thumb.png[/IMG][/URL]
[URL=http://imagecurl.com/viewer.php?file=76786488841263166389.png][IMG]http://imagecurl.com/images/76786488841263166389_thumb.png[/IMG][/URL]
[URL=http://imagecurl.com/viewer.php?file=19180591616446352675.png][IMG]http://imagecurl.com/images/19180591616446352675_thumb.png[/IMG][/URL]
[URL=http://imagecurl.com/viewer.php?file=54112047187194251973.png][IMG]http://imagecurl.com/images/54112047187194251973_thumb.png[/IMG][/URL]
[URL=http://imagecurl.com/viewer.php?file=99708679730524629064.png][IMG]http://imagecurl.com/images/99708679730524629064_thumb.png[/IMG][/URL]
[URL=http://imagecurl.com/viewer.php?file=45401571810915474924.png][IMG]http://imagecurl.com/images/45401571810915474924_thumb.png[/IMG][/URL]



[mediainfo]
Video
ID                                       : 1
Format                                   : AVC
Format/Info                              : Advanced Video Codec
Format profile                           : [email protected]
Format settings, CABAC                   : Yes
Format settings, ReFrames                : 4 frames
Codec ID                                 : V_MPEG4/ISO/AVC
Duration                                 : 44mn 7s
Bit rate                                 : 5 088 Kbps
Width                                    : 1 920 pixels
Height                                   : 1 080 pixels
Display aspect ratio                     : 16:9
Frame rate mode                          : Constant
Frame rate                               : 23.976 (24000/1001) fps
Color space                              : YUV
Chroma subsampling                       : 4:2:0
Bit depth                                : 8 bits
Scan type                                : Progressive
Bits/(Pixel*Frame)                       : 0.102
Stream size                              : 1.57 GiB (91%)
Title                                    : Once.Upon.a.Time.S06E17.1080p.WEB-DL.DD5.1.H264-RARBG
Language                                 : English
Default                                  : Yes
Forced                                   : No
Color range                              : Limited
Color primaries                          : BT.709
Transfer characteristics                 : BT.709
Matrix coefficients                      : BT.709

Audio
ID                                       : 2
Format                                   : AC-3
Format/Info                              : Audio Coding 3
Mode extension                           : CM (complete main)
Format settings, Endianness              : Big
Codec ID                                 : A_AC3
Duration                                 : 44mn 7s
Bit rate mode                            : Constant
Bit rate                                 : 384 Kbps
Channel(s)                               : 6 channels
Channel positions                        : Front: L C R, Side: L R, LFE
Sampling rate                            : 48.0 KHz
Frame rate                               : 31.250 fps (1536 spf)
Compression mode                         : Lossy
Stream size                              : 121 MiB (7%)
Title                                    : Once.Upon.a.Time.S06E17.1080p.WEB-DL.DD5.1.H264-RARBG
Language                                 : English
Default                                  : Yes
Forced                                   : No

Text #1
ID                                       : 3
Format                                   : UTF-8
Codec ID                                 : S_TEXT/UTF8
Codec ID/Info                            : UTF-8 Plain Text
Language                                 : English
Default                                  : Yes
Forced                                   : No

Text #2
ID                                       : 4
Format                                   : UTF-8
Codec ID                                 : S_TEXT/UTF8
Codec ID/Info                            : UTF-8 Plain Text
Title                                    : SDH
Language                                 : English
Default                                  : No
Forced                                   : No



[/mediainfo]
Download
File Container: MKV
Video/Audio Codec: H264 (HIGH) AC3
Video Resolution: 1920x1080
 
 
 
 

Show us some love

Leave a Comment

  • (never displayed)
  •  
        Members don't see captchas. Sign Up / Sign In
  • Notify me via email when someone responds.
  • Subscribe my Feeds
  • Facebook

Latest Episodes

Popular Movies and TV Shows

  • Arrow
  • Fargo
  • The 100
  • Logan
  • John Wick: Chapter 2
  • Dirty Dancing
  • The Handmaid's Tale
  • Archer
  • White Gold
  • The Assignment
  • Aftermath
  • Russian Lolita
  • Empire
  • Shots Fired
  • The Flash
  • Bonded by Blood 2
  • The Boss Baby
  • Eat Local
  • Prison Break: Sequel
  • The Americans
  • iZombie
  • The Last Face
  • Beauty and the Beast
  • Night of Something Strange
  • Better Call Saul

Recent Comments

  • Setius:

    Uploaded PLEASE

  • Setius:

    Ditto uploadedking
    PLEASE

  • Atoz:

    Hey, folks.
    Anyone know the reason for this repack?
    Thanks!

  • Atoz:

    Hey, folks.
    Anyone know the reason for this repack?
    Thanks!

  • Setius:

    uploaded please

  • enkno:

    The clicknupload link is undefined.

  • M1st3rN0b0d7:

    Please release x265,

    Thanks !

  • M1st3rN0b0d7:

    Please release x265,

    Thanks !

  • /.:

    Is 1080p coming?

  • alfa:

    thanks