Sign Up   |   Sign In  

Announcements

Want to support us?
Buy a RapidRAR account from our resellers:
Buy or renew a NitroFlare account via THIS LINK

04/17

2017

No

Comments

Once Upon a Time S06E17 720p WEB-DL DD5 1 H264-RARBG
[RR/NF/UL/UR]
Size: 1.4GB mkv H264 (HIGH) / AC3  HD  1280x720

Once Upon a Time
Click on the image to see full size
[RR/NF/UL/UR] Once Upon a Time S06E17 720p WEB-DL DD5 1 H264-RARBG (1.4GB) - Snapshot 1
File Information
[URL=http://imagecurl.com/viewer.php?file=99556582241101511962.png][IMG]http://imagecurl.com/images/99556582241101511962_thumb.png[/IMG][/URL]
[URL=http://imagecurl.com/viewer.php?file=49998442339006587974.png][IMG]http://imagecurl.com/images/49998442339006587974_thumb.png[/IMG][/URL]
[URL=http://imagecurl.com/viewer.php?file=28557181180746824093.png][IMG]http://imagecurl.com/images/28557181180746824093_thumb.png[/IMG][/URL]
[URL=http://imagecurl.com/viewer.php?file=31404668380530561517.png][IMG]http://imagecurl.com/images/31404668380530561517_thumb.png[/IMG][/URL]
[URL=http://imagecurl.com/viewer.php?file=81539538165631686251.png][IMG]http://imagecurl.com/images/81539538165631686251_thumb.png[/IMG][/URL]
[URL=http://imagecurl.com/viewer.php?file=74902336855546182931.png][IMG]http://imagecurl.com/images/74902336855546182931_thumb.png[/IMG][/URL]



[mediainfo]
Video
ID                                       : 1
Format                                   : AVC
Format/Info                              : Advanced Video Codec
Format profile                           : [email protected]
Format settings, CABAC                   : No
Format settings, ReFrames                : 2 frames
Codec ID                                 : V_MPEG4/ISO/AVC
Duration                                 : 44mn 7s
Bit rate                                 : 3 990 Kbps
Width                                    : 1 280 pixels
Height                                   : 720 pixels
Display aspect ratio                     : 16:9
Frame rate mode                          : Constant
Frame rate                               : 23.976 (24000/1001) fps
Color space                              : YUV
Chroma subsampling                       : 4:2:0
Bit depth                                : 8 bits
Scan type                                : Progressive
Bits/(Pixel*Frame)                       : 0.181
Stream size                              : 1.23 GiB (89%)
Title                                    : Once.Upon.a.Time.S06E17.720p.WEB-DL.DD5.1.H264-RARBG
Language                                 : English
Default                                  : Yes
Forced                                   : No
Color range                              : Limited
Color primaries                          : BT.709
Transfer characteristics                 : BT.709
Matrix coefficients                      : BT.709

Audio
ID                                       : 2
Format                                   : AC-3
Format/Info                              : Audio Coding 3
Mode extension                           : CM (complete main)
Format settings, Endianness              : Big
Codec ID                                 : A_AC3
Duration                                 : 44mn 7s
Bit rate mode                            : Constant
Bit rate                                 : 384 Kbps
Channel(s)                               : 6 channels
Channel positions                        : Front: L C R, Side: L R, LFE
Sampling rate                            : 48.0 KHz
Frame rate                               : 31.250 fps (1536 spf)
Compression mode                         : Lossy
Stream size                              : 121 MiB (9%)
Title                                    : Once.Upon.a.Time.S06E17.720p.WEB-DL.DD5.1.H264-RARBG
Language                                 : English
Default                                  : Yes
Forced                                   : No

Text #1
ID                                       : 3
Format                                   : UTF-8
Codec ID                                 : S_TEXT/UTF8
Codec ID/Info                            : UTF-8 Plain Text
Language                                 : English
Default                                  : Yes
Forced                                   : No

Text #2
ID                                       : 4
Format                                   : UTF-8
Codec ID                                 : S_TEXT/UTF8
Codec ID/Info                            : UTF-8 Plain Text
Title                                    : SDH
Language                                 : English
Default                                  : No
Forced                                   : No



[/mediainfo]
Download
File Container: MKV
Video/Audio Codec: H264 (HIGH) AC3
Video Resolution: 1280x720
 
 
 
 

Show us some love

Leave a Comment

  • (never displayed)
  •  
        Members don't see captchas. Sign Up / Sign In
  • Notify me via email when someone responds.
  • Subscribe my Feeds
  • Facebook

Latest Episodes

Popular Movies and TV Shows

  • The Big Bang Theory
  • Dear White People
  • The Blacklist
  • Voice from the Stone
  • The Sex Addict
  • Colossal
  • Supernatural
  • Grey's Anatomy
  • The Last Kingdom
  • A Dark Song
  • Fallen
  • Fire in Her Bed
  • Riverdale
  • The Catch
  • Scandal
  • Fifty Shades Darker
  • Ikari
  • Worry Dolls
  • Fargo
  • Arrow
  • Blindspot
  • The Fate of the Furious
  • Bliss
  • Stratton
  • The Flash

Recent Comments

  • TT:

    uploaded link is dead for all this episode and all others of this series

  • swisspop:

    Video is completely garbled. Waiting for PROPER.

  • tt:

    uploaded links have been removed for all versions of this episode

  • Kirvas:

    The subtitles are Chinese

  • meridian:

    @CharMr
    A free account will let you download files up to 990 MB

  • jwill758:

    Could you please reup the RapidRAR files once again please

  • bigbadbryce: Baskets.S02E02.PROPER.HDTV.x264-KILLERSRapidrar link dead. Could you please re-up.Ciao
  • thaone:

    Thank you

  • thaone:

    Thank you

  • thaone:

    Thank you