Sign Up   |   Sign In  
The ChiSistasShoresyI Saw the TV GlowBratsThe EgyptianThe Bold and the BeautifulThe Big CigarYoung SheldonThe PrestigeNotas sobre un veranoGoodbye Uncle TomThe BoysWWE NXTWalkerMower MinionsAssimilateFentasyEvilBridgertonCriminal MindsIn the Line of FireThe Artifice GirlLamp LifeThe Daily Show

Announcements

05/16

2024

1

Comments

Outer Range S02E02 Traces to Somewhere 720p AMZN WEB-DL DDP5 1 Atmos H 264-FLUX
[RR/NF/CU]
Size: 1.5GB mkv H264 (HIGH) / EAC3  HD  1248x520

Outer Range
File Information
[img]http://lookpic.com/cdn/i2/t/0516202411093861-1.jpg[/img]
[img]http://lookpic.com/cdn/i2/t/0516202411093861-2.jpg[/img]
[img]http://lookpic.com/cdn/i2/t/0516202411093861-3.jpg[/img]

General
Unique ID                                : 274857115694570401406291831421640647288 (0xCEC78E117DF9242DFDC8910918682278)
Complete name                            : Outer Range S02E02 Traces to Somewhere 720p AMZN WEB-DL DDP5 1 Atmos H 264-FLUX.mkv
Format                                   : Matroska
Format version                           : Version 4
File size                                : 1.53 GiB
Duration                                 : 53 min 28 s
Overall bit rate                         : 4 093 kb/s
Frame rate                               : 24.000 FPS
Writing application                      : mkvmerge v83.0 ('Circle Of Friends') 64-bit
Writing library                          : libebml v1.4.5 + libmatroska v1.7.1

Video
ID                                       : 1
Format                                   : AVC
Format/Info                              : Advanced Video Codec
Format profile                           : High@L3.1
Format settings                          : CABAC / 4 Ref Frames
Format settings, CABAC                   : Yes
Format settings, Reference frames        : 4 frames
Codec ID                                 : V_MPEG4/ISO/AVC
Duration                                 : 53 min 28 s
Bit rate mode                            : Constant
Bit rate                                 : 3 639 kb/s
Nominal bit rate                         : 4 000 kb/s
Width                                    : 1 248 pixels
Height                                   : 520 pixels
Display aspect ratio                     : 2.40:1
Frame rate mode                          : Constant
Frame rate                               : 24.000 FPS
Color space                              : YUV
Chroma subsampling                       : 4:2:0
Bit depth                                : 8 bits
Scan type                                : Progressive
Bits/(Pixel*Frame)                       : 0.234
Stream size                              : 1.36 GiB (89%)
Language                                 : English (US)
Default                                  : Yes
Forced                                   : No
Color range                              : Limited
Color primaries                          : BT.709
Transfer characteristics                 : BT.709
Matrix coefficients                      : BT.709

Audio
ID                                       : 2
Format                                   : E-AC-3 JOC
Format/Info                              : Enhanced AC-3 with Joint Object Coding
Commercial name                          : Dolby Digital Plus with Dolby Atmos
Codec ID                                 : A_EAC3
Duration                                 : 53 min 28 s
Bit rate mode                            : Constant
Bit rate                                 : 448 kb/s
Channel(s)                               : 6 channels
Channel layout                           : L R C LFE Ls Rs
Sampling rate                            : 48.0 kHz
Frame rate                               : 31.250 FPS (1536 SPF)
Compression mode                         : Lossy
Stream size                              : 171 MiB (11%)
Language                                 : English (US)
Service kind                             : Complete Main
Default                                  : Yes
Forced                                   : No
Complexity index                         : 16
Number of dynamic objects                : 15
Bed channel count                        : 1 channel
Bed channel configuration                : LFE

Text #1
ID                                       : 3
Format                                   : UTF-8
Codec ID                                 : S_TEXT/UTF8
Codec ID/Info                            : UTF-8 Plain Text
Duration                                 : 2 s 375 ms
Bit rate                                 : 80 b/s
Frame rate                               : 0.842 FPS
Count of elements                        : 2
Stream size                              : 24.0 Bytes (0%)
Title                                    : Forced
Language                                 : English (US)
Default                                  : Yes
Forced                                   : Yes

Text #2
ID                                       : 4
Format                                   : UTF-8
Codec ID                                 : S_TEXT/UTF8
Codec ID/Info                            : UTF-8 Plain Text
Duration                                 : 51 min 8 s
Bit rate                                 : 52 b/s
Frame rate                               : 0.204 FPS
Count of elements                        : 625
Stream size                              : 19.6 KiB (0%)
Language                                 : English (US)
Default                                  : No
Forced                                   : No

Text #3
ID                                       : 5
Format                                   : UTF-8
Codec ID                                 : S_TEXT/UTF8
Codec ID/Info                            : UTF-8 Plain Text
Duration                                 : 51 min 8 s
Bit rate                                 : 60 b/s
Frame rate                               : 0.244 FPS
Count of elements                        : 749
Stream size                              : 22.7 KiB (0%)
Title                                    : SDH
Language                                 : English (US)
Default                                  : No
Forced                                   : No

Text #4
ID                                       : 6
Format                                   : UTF-8
Codec ID                                 : S_TEXT/UTF8
Codec ID/Info                            : UTF-8 Plain Text
Duration                                 : 50 min 55 s
Bit rate                                 : 81 b/s
Frame rate                               : 0.202 FPS
Count of elements                        : 616
Stream size                              : 30.4 KiB (0%)
Language                                 : Arabic (001)
Default                                  : No
Forced                                   : No

Text #5
ID                                       : 7
Format                                   : UTF-8
Codec ID                                 : S_TEXT/UTF8
Codec ID/Info                            : UTF-8 Plain Text
Duration                                 : 50 min 55 s
Bit rate                                 : 43 b/s
Frame rate                               : 0.195 FPS
Count of elements                        : 595
Stream size                              : 16.3 KiB (0%)
Title                                    : European
Language                                 : Catalan (ES)
Default                                  : No
Forced                                   : No

Text #6
ID                                       : 8
Format                                   : UTF-8
Codec ID                                 : S_TEXT/UTF8
Codec ID/Info                            : UTF-8 Plain Text
Duration                                 : 50 min 55 s
Bit rate                                 : 45 b/s
Frame rate                               : 0.197 FPS
Count of elements                        : 603
Stream size                              : 17.0 KiB (0%)
Language                                 : Czech (CZ)
Default                                  : No
Forced                                   : No

Text #7
ID                                       : 9
Format                                   : UTF-8
Codec ID                                 : S_TEXT/UTF8
Codec ID/Info                            : UTF-8 Plain Text
Duration                                 : 50 min 55 s
Bit rate                                 : 44 b/s
Frame rate                               : 0.196 FPS
Count of elements                        : 599
Stream size                              : 16.5 KiB (0%)
Language                                 : Danish (DK)
Default                                  : No
Forced                                   : No

Text #8
ID                                       : 10
Format                                   : UTF-8
Codec ID                                 : S_TEXT/UTF8
Codec ID/Info                            : UTF-8 Plain Text
Duration                                 : 50 min 55 s
Bit rate                                 : 45 b/s
Frame rate                               : 0.200 FPS
Count of elements                        : 612
Stream size                              : 17.1 KiB (0%)
Language                                 : German (DE)
Default                                  : No
Forced                                   : No

Text #9
ID                                       : 11
Format                                   : UTF-8
Codec ID                                 : S_TEXT/UTF8
Codec ID/Info                            : UTF-8 Plain Text
Duration                                 : 50 min 55 s
Bit rate                                 : 83 b/s
Frame rate                               : 0.201 FPS
Count of elements                        : 613
Stream size                              : 31.0 KiB (0%)
Language                                 : Greek (GR)
Default                                  : No
Forced                                   : No

Text #10
ID                                       : 12
Format                                   : UTF-8
Codec ID                                 : S_TEXT/UTF8
Codec ID/Info                            : UTF-8 Plain Text
Duration                                 : 50 min 55 s
Bit rate                                 : 46 b/s
Frame rate                               : 0.201 FPS
Count of elements                        : 614
Stream size                              : 17.2 KiB (0%)
Title                                    : Latin American
Language                                 : Spanish (Latin America)
Default                                  : No
Forced                                   : No

Text #11
ID                                       : 13
Format                                   : UTF-8
Codec ID                                 : S_TEXT/UTF8
Codec ID/Info                            : UTF-8 Plain Text
Duration                                 : 50 min 55 s
Bit rate                                 : 45 b/s
Frame rate                               : 0.201 FPS
Count of elements                        : 615
Stream size                              : 16.8 KiB (0%)
Language                                 : Spanish (ES)
Default                                  : No
Forced                                   : No

Text #12
ID                                       : 14
Format                                   : UTF-8
Codec ID                                 : S_TEXT/UTF8
Codec ID/Info                            : UTF-8 Plain Text
Duration                                 : 50 min 55 s
Bit rate                                 : 43 b/s
Frame rate                               : 0.201 FPS
Count of elements                        : 614
Stream size                              : 16.2 KiB (0%)
Title                                    : European
Language                                 : Basque (ES)
Default                                  : No
Forced                                   : No

Text #13
ID                                       : 15
Format                                   : UTF-8
Codec ID                                 : S_TEXT/UTF8
Codec ID/Info                            : UTF-8 Plain Text
Duration                                 : 50 min 55 s
Bit rate                                 : 43 b/s
Frame rate                               : 0.200 FPS
Count of elements                        : 612
Stream size                              : 16.2 KiB (0%)
Language                                 : Finnish (FI)
Default                                  : No
Forced                                   : No

Text #14
ID                                       : 16
Format                                   : UTF-8
Codec ID                                 : S_TEXT/UTF8
Codec ID/Info                            : UTF-8 Plain Text
Duration                                 : 50 min 55 s
Bit rate                                 : 45 b/s
Frame rate                               : 0.200 FPS
Count of elements                        : 611
Stream size                              : 17.0 KiB (0%)
Language                                 : French (FR)
Default                                  : No
Forced                                   : No

Text #15
ID                                       : 17
Format                                   : UTF-8
Codec ID                                 : S_TEXT/UTF8
Codec ID/Info                            : UTF-8 Plain Text
Duration                                 : 50 min 55 s
Bit rate                                 : 41 b/s
Frame rate                               : 0.200 FPS
Count of elements                        : 612
Stream size                              : 15.6 KiB (0%)
Title                                    : European
Language                                 : Galician (ES)
Default                                  : No
Forced                                   : No

Text #16
ID                                       : 18
Format                                   : UTF-8
Codec ID                                 : S_TEXT/UTF8
Codec ID/Info                            : UTF-8 Plain Text
Duration                                 : 50 min 55 s
Bit rate                                 : 73 b/s
Frame rate                               : 0.202 FPS
Count of elements                        : 616
Stream size                              : 27.5 KiB (0%)
Language                                 : Hebrew (IL)
Default                                  : No
Forced                                   : No

Text #17
ID                                       : 19
Format                                   : UTF-8
Codec ID                                 : S_TEXT/UTF8
Codec ID/Info                            : UTF-8 Plain Text
Duration                                 : 50 min 55 s
Bit rate                                 : 112 b/s
Frame rate                               : 0.202 FPS
Count of elements                        : 616
Stream size                              : 42.0 KiB (0%)
Language                                 : Hindi (IN)
Default                                  : No
Forced                                   : No

Text #18
ID                                       : 20
Format                                   : UTF-8
Codec ID                                 : S_TEXT/UTF8
Codec ID/Info                            : UTF-8 Plain Text
Duration                                 : 50 min 55 s
Bit rate                                 : 48 b/s
Frame rate                               : 0.201 FPS
Count of elements                        : 613
Stream size                              : 18.2 KiB (0%)
Language                                 : Hungarian (HU)
Default                                  : No
Forced                                   : No

Text #19
ID                                       : 21
Format                                   : UTF-8
Codec ID                                 : S_TEXT/UTF8
Codec ID/Info                            : UTF-8 Plain Text
Duration                                 : 50 min 55 s
Bit rate                                 : 43 b/s
Frame rate                               : 0.197 FPS
Count of elements                        : 601
Stream size                              : 16.2 KiB (0%)
Language                                 : Indonesian (ID)
Default                                  : No
Forced                                   : No

Text #20
ID                                       : 22
Format                                   : UTF-8
Codec ID                                 : S_TEXT/UTF8
Codec ID/Info                            : UTF-8 Plain Text
Duration                                 : 50 min 55 s
Bit rate                                 : 45 b/s
Frame rate                               : 0.201 FPS
Count of elements                        : 613
Stream size                              : 17.1 KiB (0%)
Language                                 : Italian (IT)
Default                                  : No
Forced                                   : No

Text #21
ID                                       : 23
Format                                   : UTF-8
Codec ID                                 : S_TEXT/UTF8
Codec ID/Info                            : UTF-8 Plain Text
Duration                                 : 50 min 55 s
Bit rate                                 : 42 b/s
Frame rate                               : 0.188 FPS
Count of elements                        : 573
Stream size                              : 15.9 KiB (0%)
Language                                 : Japanese (JP)
Default                                  : No
Forced                                   : No

Text #22
ID                                       : 24
Format                                   : UTF-8
Codec ID                                 : S_TEXT/UTF8
Codec ID/Info                            : UTF-8 Plain Text
Duration                                 : 50 min 55 s
Bit rate                                 : 114 b/s
Frame rate                               : 0.201 FPS
Count of elements                        : 614
Stream size                              : 42.8 KiB (0%)
Language                                 : Kannada (IN)
Default                                  : No
Forced                                   : No

Text #23
ID                                       : 25
Format                                   : UTF-8
Codec ID                                 : S_TEXT/UTF8
Codec ID/Info                            : UTF-8 Plain Text
Duration                                 : 50 min 55 s
Bit rate                                 : 56 b/s
Frame rate                               : 0.202 FPS
Count of elements                        : 616
Stream size                              : 21.1 KiB (0%)
Language                                 : Korean (KR)
Default                                  : No
Forced                                   : No

Text #24
ID                                       : 26
Format                                   : UTF-8
Codec ID                                 : S_TEXT/UTF8
Codec ID/Info                            : UTF-8 Plain Text
Duration                                 : 50 min 55 s
Bit rate                                 : 152 b/s
Frame rate                               : 0.202 FPS
Count of elements                        : 616
Stream size                              : 57.0 KiB (0%)
Language                                 : Malayalam (IN)
Default                                  : No
Forced                                   : No

Text #25
ID                                       : 27
Format                                   : UTF-8
Codec ID                                 : S_TEXT/UTF8
Codec ID/Info                            : UTF-8 Plain Text
Duration                                 : 50 min 55 s
Bit rate                                 : 47 b/s
Frame rate                               : 0.200 FPS
Count of elements                        : 612
Stream size                              : 17.8 KiB (0%)
Language                                 : Malay (MY)
Default                                  : No
Forced                                   : No

Text #26
ID                                       : 28
Format                                   : UTF-8
Codec ID                                 : S_TEXT/UTF8
Codec ID/Info                            : UTF-8 Plain Text
Duration                                 : 50 min 55 s
Bit rate                                 : 41 b/s
Frame rate                               : 0.196 FPS
Count of elements                        : 598
Stream size                              : 15.6 KiB (0%)
Language                                 : Norwegian Bokmal (NO)
Default                                  : No
Forced                                   : No

Text #27
ID                                       : 29
Format                                   : UTF-8
Codec ID                                 : S_TEXT/UTF8
Codec ID/Info                            : UTF-8 Plain Text
Duration                                 : 50 min 55 s
Bit rate                                 : 42 b/s
Frame rate                               : 0.193 FPS
Count of elements                        : 590
Stream size                              : 15.8 KiB (0%)
Language                                 : Dutch (NL)
Default                                  : No
Forced                                   : No

Text #28
ID                                       : 30
Format                                   : UTF-8
Codec ID                                 : S_TEXT/UTF8
Codec ID/Info                            : UTF-8 Plain Text
Duration                                 : 50 min 55 s
Bit rate                                 : 44 b/s
Frame rate                               : 0.201 FPS
Count of elements                        : 613
Stream size                              : 16.5 KiB (0%)
Language                                 : Polish (PL)
Default                                  : No
Forced                                   : No

Text #29
ID                                       : 31
Format                                   : UTF-8
Codec ID                                 : S_TEXT/UTF8
Codec ID/Info                            : UTF-8 Plain Text
Duration                                 : 50 min 55 s
Bit rate                                 : 49 b/s
Frame rate                               : 0.200 FPS
Count of elements                        : 610
Stream size                              : 18.4 KiB (0%)
Language                                 : Portuguese (PT)
Default                                  : No
Forced                                   : No

Text #30
ID                                       : 32
Format                                   : UTF-8
Codec ID                                 : S_TEXT/UTF8
Codec ID/Info                            : UTF-8 Plain Text
Duration                                 : 50 min 55 s
Bit rate                                 : 46 b/s
Frame rate                               : 0.197 FPS
Count of elements                        : 602
Stream size                              : 17.4 KiB (0%)
Language                                 : Romanian (RO)
Default                                  : No
Forced                                   : No

Text #31
ID                                       : 33
Format                                   : UTF-8
Codec ID                                 : S_TEXT/UTF8
Codec ID/Info                            : UTF-8 Plain Text
Duration                                 : 50 min 55 s
Bit rate                                 : 45 b/s
Frame rate                               : 0.200 FPS
Count of elements                        : 612
Stream size                              : 16.8 KiB (0%)
Language                                 : Swedish (SE)
Default                                  : No
Forced                                   : No

Text #32
ID                                       : 34
Format                                   : UTF-8
Codec ID                                 : S_TEXT/UTF8
Codec ID/Info                            : UTF-8 Plain Text
Duration                                 : 50 min 55 s
Bit rate                                 : 120 b/s
Frame rate                               : 0.202 FPS
Count of elements                        : 616
Stream size                              : 45.1 KiB (0%)
Language                                 : Tamil (IN)
Default                                  : No
Forced                                   : No

Text #33
ID                                       : 35
Format                                   : UTF-8
Codec ID                                 : S_TEXT/UTF8
Codec ID/Info                            : UTF-8 Plain Text
Duration                                 : 50 min 55 s
Bit rate                                 : 119 b/s
Frame rate                               : 0.202 FPS
Count of elements                        : 616
Stream size                              : 44.5 KiB (0%)
Language                                 : Telugu (IN)
Default                                  : No
Forced                                   : No

Text #34
ID                                       : 36
Format                                   : UTF-8
Codec ID                                 : S_TEXT/UTF8
Codec ID/Info                            : UTF-8 Plain Text
Duration                                 : 50 min 55 s
Bit rate                                 : 112 b/s
Frame rate                               : 0.201 FPS
Count of elements                        : 615
Stream size                              : 42.0 KiB (0%)
Language                                 : Thai (TH)
Default                                  : No
Forced                                   : No

Text #35
ID                                       : 37
Format                                   : UTF-8
Codec ID                                 : S_TEXT/UTF8
Codec ID/Info                            : UTF-8 Plain Text
Duration                                 : 50 min 55 s
Bit rate                                 : 45 b/s
Frame rate                               : 0.201 FPS
Count of elements                        : 613
Stream size                              : 17.1 KiB (0%)
Language                                 : Turkish (TR)
Default                                  : No
Forced                                   : No

Text #36
ID                                       : 38
Format                                   : UTF-8
Codec ID                                 : S_TEXT/UTF8
Codec ID/Info                            : UTF-8 Plain Text
Duration                                 : 50 min 55 s
Bit rate                                 : 46 b/s
Frame rate                               : 0.199 FPS
Count of elements                        : 609
Stream size                              : 17.4 KiB (0%)
Title                                    : Simplified
Language                                 : Chinese (Simplified)
Default                                  : No
Forced                                   : No

Text #37
ID                                       : 39
Format                                   : UTF-8
Codec ID                                 : S_TEXT/UTF8
Codec ID/Info                            : UTF-8 Plain Text
Duration                                 : 50 min 55 s
Bit rate                                 : 44 b/s
Frame rate                               : 0.202 FPS
Count of elements                        : 616
Stream size                              : 16.5 KiB (0%)
Title                                    : Traditional
Language                                 : Chinese (Traditional)
Default                                  : No
Forced                                   : No

Menu
00:00:00.000                             : en:Scene 1
00:00:10.000                             : en:Recap
00:01:12.000                             : en:Scene 2
00:05:56.000                             : en:Intro
00:06:12.000                             : en:Scene 3
00:49:00.000                             : en:End Credits



Download
File Container: MKV
Video/Audio Codec: H264 (HIGH) EAC3
Video Resolution: 1248x520

1 Response to "[RR/NF/CU] Outer Range S02E02 Traces to Somewhere 720p AMZN WEB-DL DDP5 1 Atmos H 264-FLUX (1.5GB)"
05/16/24
12:52:02
ReadyPlayerOne

Thank You

Please Login to post a comment.
If you don't have any account, please Register.
  • Subscribe my Feeds
  • Facebook
Encoding Queue:  x264  x265

Latest Episodes

Popular Movies and TV Shows

  • The Chi
  • Sistas
  • Shoresy
  • I Saw the TV Glow
  • Brats
  • The Egyptian
  • The Bold and the Beautiful
  • The Big Cigar
  • Young Sheldon
  • The Prestige
  • Notas sobre un verano
  • Goodbye Uncle Tom
  • The Boys
  • WWE NXT
  • Walker
  • Mower Minions
  • Assimilate
  • Fentasy
  • Evil
  • Bridgerton
  • Criminal Minds
  • In the Line of Fire
  • The Artifice Girl
  • Lamp Life
  • The Daily Show

Recent Comments

Archives