Sign Up   |   Sign In  
EvilWalkerWWE NXTThis Is SparklehorseMelody TimeMoviePass, MovieCrashReginald the VampireMacGyverLaw & Order: Organized CrimeBoys on Film 21: Beautiful SecretThe Fall GuyAutoeroticFuriosa: A Mad Max SagaDark MatterMasterChef AustraliaUnder the BridgeThe Feeling That the Time for Doing Something Has PassedNevada SmithThe Big Door PrizeWWE RawLootYour Mother's SonMahal ko ang mahal moCivil WarThe Daily Show

Announcements

04/10

2024

1

Comments

Palm Royale S01E06 Maxine Takes a Step 1080p ATVP WEB-DL DDP5 1 Atmos H 264-FLUX
[RR/NF]
Size: 3.8GB mkv H264 (HIGH) / EAC3  HD  1918x816

Palm Royale
File Information
[img]http://lookpic.com/cdn/i2/t/0410202403340595-1.jpg[/img]
[img]http://lookpic.com/cdn/i2/t/0410202403340595-2.jpg[/img]
[img]http://lookpic.com/cdn/i2/t/0410202403340595-3.jpg[/img]

General
Unique ID                                : 120957415823048171134707928154642555291 (0x5AFF8D08A13C44B1A70E0919032FA19B)
Complete name                            : Palm Royale S01E06 Maxine Takes a Step 1080p ATVP WEB-DL DDP5 1 Atmos H 264-FLUX.mkv
Format                                   : Matroska
Format version                           : Version 4
File size                                : 3.84 GiB
Duration                                 : 51 min 25 s
Overall bit rate                         : 10.7 Mb/s
Frame rate                               : 23.976 FPS
Writing application                      : mkvmerge v82.0 ('I'm The President') 64-bit
Writing library                          : libebml v1.4.5 + libmatroska v1.7.1

Video
ID                                       : 1
Format                                   : AVC
Format/Info                              : Advanced Video Codec
Format profile                           : High@L4
Format settings                          : CABAC / 5 Ref Frames
Format settings, CABAC                   : Yes
Format settings, Reference frames        : 5 frames
Codec ID                                 : V_MPEG4/ISO/AVC
Duration                                 : 51 min 25 s
Bit rate                                 : 9 908 kb/s
Width                                    : 1 918 pixels
Height                                   : 816 pixels
Display aspect ratio                     : 2.35:1
Frame rate mode                          : Constant
Frame rate                               : 23.976 (24000/1001) FPS
Color space                              : YUV
Chroma subsampling                       : 4:2:0
Bit depth                                : 8 bits
Scan type                                : Progressive
Bits/(Pixel*Frame)                       : 0.264
Stream size                              : 3.56 GiB (93%)
Language                                 : English
Default                                  : Yes
Forced                                   : No
Color range                              : Limited
Color primaries                          : BT.709
Transfer characteristics                 : BT.709
Matrix coefficients                      : BT.709

Audio
ID                                       : 2
Format                                   : E-AC-3 JOC
Format/Info                              : Enhanced AC-3 with Joint Object Coding
Commercial name                          : Dolby Digital Plus with Dolby Atmos
Codec ID                                 : A_EAC3
Duration                                 : 51 min 25 s
Bit rate mode                            : Constant
Bit rate                                 : 768 kb/s
Channel(s)                               : 6 channels
Channel layout                           : L R C LFE Ls Rs
Sampling rate                            : 48.0 kHz
Frame rate                               : 31.250 FPS (1536 SPF)
Compression mode                         : Lossy
Stream size                              : 282 MiB (7%)
Language                                 : English
Service kind                             : Complete Main
Default                                  : Yes
Forced                                   : No
Complexity index                         : 16
Number of dynamic objects                : 15
Bed channel count                        : 1 channel
Bed channel configuration                : LFE

Text #1
ID                                       : 3
Format                                   : UTF-8
Codec ID                                 : S_TEXT/UTF8
Codec ID/Info                            : UTF-8 Plain Text
Duration                                 : 48 min 31 s
Bit rate                                 : 76 b/s
Frame rate                               : 0.270 FPS
Count of elements                        : 787
Stream size                              : 27.2 KiB (0%)
Language                                 : English
Default                                  : No
Forced                                   : No

Text #2
ID                                       : 4
Format                                   : UTF-8
Codec ID                                 : S_TEXT/UTF8
Codec ID/Info                            : UTF-8 Plain Text
Duration                                 : 48 min 34 s
Bit rate                                 : 88 b/s
Frame rate                               : 0.299 FPS
Count of elements                        : 870
Stream size                              : 31.3 KiB (0%)
Title                                    : SDH
Language                                 : English
Default                                  : No
Forced                                   : No

Text #3
ID                                       : 5
Format                                   : UTF-8
Codec ID                                 : S_TEXT/UTF8
Codec ID/Info                            : UTF-8 Plain Text
Duration                                 : 50 min 12 s
Bit rate                                 : 109 b/s
Frame rate                               : 0.258 FPS
Count of elements                        : 778
Stream size                              : 40.2 KiB (0%)
Language                                 : Arabic
Default                                  : No
Forced                                   : No

Text #4
ID                                       : 6
Format                                   : UTF-8
Codec ID                                 : S_TEXT/UTF8
Codec ID/Info                            : UTF-8 Plain Text
Duration                                 : 50 min 12 s
Bit rate                                 : 104 b/s
Frame rate                               : 0.203 FPS
Count of elements                        : 612
Stream size                              : 38.3 KiB (0%)
Language                                 : Bulgarian
Default                                  : No
Forced                                   : No

Text #5
ID                                       : 7
Format                                   : UTF-8
Codec ID                                 : S_TEXT/UTF8
Codec ID/Info                            : UTF-8 Plain Text
Duration                                 : 50 min 12 s
Bit rate                                 : 68 b/s
Frame rate                               : 0.260 FPS
Count of elements                        : 783
Stream size                              : 25.1 KiB (0%)
Title                                    : Simplified
Language                                 : Chinese (Simplified)
Default                                  : No
Forced                                   : No

Text #6
ID                                       : 8
Format                                   : UTF-8
Codec ID                                 : S_TEXT/UTF8
Codec ID/Info                            : UTF-8 Plain Text
Duration                                 : 50 min 12 s
Bit rate                                 : 64 b/s
Frame rate                               : 0.260 FPS
Count of elements                        : 783
Stream size                              : 23.7 KiB (0%)
Title                                    : Traditional
Language                                 : Chinese (Traditional)
Default                                  : No
Forced                                   : No

Text #7
ID                                       : 9
Format                                   : UTF-8
Codec ID                                 : S_TEXT/UTF8
Codec ID/Info                            : UTF-8 Plain Text
Duration                                 : 50 min 12 s
Bit rate                                 : 65 b/s
Frame rate                               : 0.245 FPS
Count of elements                        : 739
Stream size                              : 24.2 KiB (0%)
Language                                 : Czech
Default                                  : No
Forced                                   : No

Text #8
ID                                       : 10
Format                                   : UTF-8
Codec ID                                 : S_TEXT/UTF8
Codec ID/Info                            : UTF-8 Plain Text
Duration                                 : 49 min 52 s
Bit rate                                 : 64 b/s
Frame rate                               : 0.206 FPS
Count of elements                        : 617
Stream size                              : 23.6 KiB (0%)
Language                                 : Danish
Default                                  : No
Forced                                   : No

Text #9
ID                                       : 11
Format                                   : UTF-8
Codec ID                                 : S_TEXT/UTF8
Codec ID/Info                            : UTF-8 Plain Text
Duration                                 : 50 min 25 s
Bit rate                                 : 80 b/s
Frame rate                               : 0.261 FPS
Count of elements                        : 791
Stream size                              : 29.7 KiB (0%)
Language                                 : German
Default                                  : No
Forced                                   : No

Text #10
ID                                       : 12
Format                                   : UTF-8
Codec ID                                 : S_TEXT/UTF8
Codec ID/Info                            : UTF-8 Plain Text
Duration                                 : 50 min 12 s
Bit rate                                 : 118 b/s
Frame rate                               : 0.254 FPS
Count of elements                        : 764
Stream size                              : 43.4 KiB (0%)
Language                                 : Greek
Default                                  : No
Forced                                   : No

Text #11
ID                                       : 13
Format                                   : UTF-8
Codec ID                                 : S_TEXT/UTF8
Codec ID/Info                            : UTF-8 Plain Text
Duration                                 : 50 min 12 s
Bit rate                                 : 71 b/s
Frame rate                               : 0.260 FPS
Count of elements                        : 784
Stream size                              : 26.4 KiB (0%)
Title                                    : Latin American
Language                                 : Spanish (Latin America)
Default                                  : No
Forced                                   : No

Text #12
ID                                       : 14
Format                                   : UTF-8
Codec ID                                 : S_TEXT/UTF8
Codec ID/Info                            : UTF-8 Plain Text
Duration                                 : 50 min 25 s
Bit rate                                 : 70 b/s
Frame rate                               : 0.256 FPS
Count of elements                        : 773
Stream size                              : 26.1 KiB (0%)
Language                                 : Spanish (ES)
Default                                  : No
Forced                                   : No

Text #13
ID                                       : 15
Format                                   : UTF-8
Codec ID                                 : S_TEXT/UTF8
Codec ID/Info                            : UTF-8 Plain Text
Duration                                 : 50 min 12 s
Bit rate                                 : 68 b/s
Frame rate                               : 0.251 FPS
Count of elements                        : 755
Stream size                              : 25.3 KiB (0%)
Language                                 : Estonian
Default                                  : No
Forced                                   : No

Text #14
ID                                       : 16
Format                                   : UTF-8
Codec ID                                 : S_TEXT/UTF8
Codec ID/Info                            : UTF-8 Plain Text
Duration                                 : 50 min 12 s
Bit rate                                 : 66 b/s
Frame rate                               : 0.238 FPS
Count of elements                        : 717
Stream size                              : 24.5 KiB (0%)
Language                                 : Finnish
Default                                  : No
Forced                                   : No

Text #15
ID                                       : 17
Format                                   : UTF-8
Codec ID                                 : S_TEXT/UTF8
Codec ID/Info                            : UTF-8 Plain Text
Duration                                 : 50 min 3 s
Bit rate                                 : 69 b/s
Frame rate                               : 0.276 FPS
Count of elements                        : 828
Stream size                              : 25.6 KiB (0%)
Title                                    : Canadian
Language                                 : French (CA)
Default                                  : No
Forced                                   : No

Text #16
ID                                       : 18
Format                                   : UTF-8
Codec ID                                 : S_TEXT/UTF8
Codec ID/Info                            : UTF-8 Plain Text
Duration                                 : 50 min 3 s
Bit rate                                 : 69 b/s
Frame rate                               : 0.275 FPS
Count of elements                        : 827
Stream size                              : 25.6 KiB (0%)
Language                                 : French (FR)
Default                                  : No
Forced                                   : No

Text #17
ID                                       : 19
Format                                   : UTF-8
Codec ID                                 : S_TEXT/UTF8
Codec ID/Info                            : UTF-8 Plain Text
Duration                                 : 50 min 12 s
Bit rate                                 : 104 b/s
Frame rate                               : 0.259 FPS
Count of elements                        : 781
Stream size                              : 38.3 KiB (0%)
Language                                 : Hebrew
Default                                  : No
Forced                                   : No

Text #18
ID                                       : 20
Format                                   : UTF-8
Codec ID                                 : S_TEXT/UTF8
Codec ID/Info                            : UTF-8 Plain Text
Duration                                 : 50 min 12 s
Bit rate                                 : 191 b/s
Frame rate                               : 0.260 FPS
Count of elements                        : 783
Stream size                              : 70.5 KiB (0%)
Language                                 : Hindi
Default                                  : No
Forced                                   : No

Text #19
ID                                       : 21
Format                                   : UTF-8
Codec ID                                 : S_TEXT/UTF8
Codec ID/Info                            : UTF-8 Plain Text
Duration                                 : 50 min 12 s
Bit rate                                 : 69 b/s
Frame rate                               : 0.251 FPS
Count of elements                        : 755
Stream size                              : 25.5 KiB (0%)
Language                                 : Hungarian
Default                                  : No
Forced                                   : No

Text #20
ID                                       : 22
Format                                   : UTF-8
Codec ID                                 : S_TEXT/UTF8
Codec ID/Info                            : UTF-8 Plain Text
Duration                                 : 50 min 12 s
Bit rate                                 : 73 b/s
Frame rate                               : 0.259 FPS
Count of elements                        : 779
Stream size                              : 27.1 KiB (0%)
Language                                 : Indonesian
Default                                  : No
Forced                                   : No

Text #21
ID                                       : 23
Format                                   : UTF-8
Codec ID                                 : S_TEXT/UTF8
Codec ID/Info                            : UTF-8 Plain Text
Duration                                 : 50 min 25 s
Bit rate                                 : 78 b/s
Frame rate                               : 0.261 FPS
Count of elements                        : 791
Stream size                              : 29.0 KiB (0%)
Language                                 : Italian
Default                                  : No
Forced                                   : No

Text #22
ID                                       : 24
Format                                   : UTF-8
Codec ID                                 : S_TEXT/UTF8
Codec ID/Info                            : UTF-8 Plain Text
Duration                                 : 50 min 9 s
Bit rate                                 : 57 b/s
Frame rate                               : 0.254 FPS
Count of elements                        : 763
Stream size                              : 21.0 KiB (0%)
Language                                 : Japanese
Default                                  : No
Forced                                   : No

Text #23
ID                                       : 25
Format                                   : UTF-8
Codec ID                                 : S_TEXT/UTF8
Codec ID/Info                            : UTF-8 Plain Text
Duration                                 : 50 min 12 s
Bit rate                                 : 83 b/s
Frame rate                               : 0.265 FPS
Count of elements                        : 798
Stream size                              : 30.6 KiB (0%)
Language                                 : Korean
Default                                  : No
Forced                                   : No

Text #24
ID                                       : 26
Format                                   : UTF-8
Codec ID                                 : S_TEXT/UTF8
Codec ID/Info                            : UTF-8 Plain Text
Duration                                 : 50 min 12 s
Bit rate                                 : 72 b/s
Frame rate                               : 0.258 FPS
Count of elements                        : 777
Stream size                              : 26.6 KiB (0%)
Language                                 : Lithuanian
Default                                  : No
Forced                                   : No

Text #25
ID                                       : 27
Format                                   : UTF-8
Codec ID                                 : S_TEXT/UTF8
Codec ID/Info                            : UTF-8 Plain Text
Duration                                 : 50 min 12 s
Bit rate                                 : 73 b/s
Frame rate                               : 0.255 FPS
Count of elements                        : 767
Stream size                              : 26.9 KiB (0%)
Language                                 : Latvian
Default                                  : No
Forced                                   : No

Text #26
ID                                       : 28
Format                                   : UTF-8
Codec ID                                 : S_TEXT/UTF8
Codec ID/Info                            : UTF-8 Plain Text
Duration                                 : 50 min 12 s
Bit rate                                 : 71 b/s
Frame rate                               : 0.258 FPS
Count of elements                        : 777
Stream size                              : 26.5 KiB (0%)
Language                                 : Malay
Default                                  : No
Forced                                   : No

Text #27
ID                                       : 29
Format                                   : UTF-8
Codec ID                                 : S_TEXT/UTF8
Codec ID/Info                            : UTF-8 Plain Text
Duration                                 : 50 min 12 s
Bit rate                                 : 60 b/s
Frame rate                               : 0.223 FPS
Count of elements                        : 673
Stream size                              : 22.3 KiB (0%)
Language                                 : Dutch
Default                                  : No
Forced                                   : No

Text #28
ID                                       : 30
Format                                   : UTF-8
Codec ID                                 : S_TEXT/UTF8
Codec ID/Info                            : UTF-8 Plain Text
Duration                                 : 50 min 12 s
Bit rate                                 : 68 b/s
Frame rate                               : 0.211 FPS
Count of elements                        : 636
Stream size                              : 25.1 KiB (0%)
Language                                 : Norwegian
Default                                  : No
Forced                                   : No

Text #29
ID                                       : 31
Format                                   : UTF-8
Codec ID                                 : S_TEXT/UTF8
Codec ID/Info                            : UTF-8 Plain Text
Duration                                 : 50 min 12 s
Bit rate                                 : 70 b/s
Frame rate                               : 0.254 FPS
Count of elements                        : 764
Stream size                              : 26.0 KiB (0%)
Language                                 : Polish
Default                                  : No
Forced                                   : No

Text #30
ID                                       : 32
Format                                   : UTF-8
Codec ID                                 : S_TEXT/UTF8
Codec ID/Info                            : UTF-8 Plain Text
Duration                                 : 50 min 12 s
Bit rate                                 : 74 b/s
Frame rate                               : 0.258 FPS
Count of elements                        : 777
Stream size                              : 27.4 KiB (0%)
Language                                 : Portuguese
Default                                  : No
Forced                                   : No

Text #31
ID                                       : 33
Format                                   : UTF-8
Codec ID                                 : S_TEXT/UTF8
Codec ID/Info                            : UTF-8 Plain Text
Duration                                 : 50 min 12 s
Bit rate                                 : 63 b/s
Frame rate                               : 0.242 FPS
Count of elements                        : 730
Stream size                              : 23.5 KiB (0%)
Title                                    : Brazilian
Language                                 : Portuguese (BR)
Default                                  : No
Forced                                   : No

Text #32
ID                                       : 34
Format                                   : UTF-8
Codec ID                                 : S_TEXT/UTF8
Codec ID/Info                            : UTF-8 Plain Text
Duration                                 : 50 min 12 s
Bit rate                                 : 102 b/s
Frame rate                               : 0.242 FPS
Count of elements                        : 729
Stream size                              : 37.7 KiB (0%)
Language                                 : Russian
Default                                  : No
Forced                                   : No

Text #33
ID                                       : 35
Format                                   : UTF-8
Codec ID                                 : S_TEXT/UTF8
Codec ID/Info                            : UTF-8 Plain Text
Duration                                 : 49 min 52 s
Bit rate                                 : 65 b/s
Frame rate                               : 0.258 FPS
Count of elements                        : 772
Stream size                              : 23.9 KiB (0%)
Language                                 : Slovak
Default                                  : No
Forced                                   : No

Text #34
ID                                       : 36
Format                                   : UTF-8
Codec ID                                 : S_TEXT/UTF8
Codec ID/Info                            : UTF-8 Plain Text
Duration                                 : 50 min 12 s
Bit rate                                 : 58 b/s
Frame rate                               : 0.225 FPS
Count of elements                        : 678
Stream size                              : 21.4 KiB (0%)
Language                                 : Slovenian
Default                                  : No
Forced                                   : No

Text #35
ID                                       : 37
Format                                   : UTF-8
Codec ID                                 : S_TEXT/UTF8
Codec ID/Info                            : UTF-8 Plain Text
Duration                                 : 50 min 12 s
Bit rate                                 : 70 b/s
Frame rate                               : 0.251 FPS
Count of elements                        : 755
Stream size                              : 26.1 KiB (0%)
Language                                 : Swedish
Default                                  : No
Forced                                   : No

Text #36
ID                                       : 38
Format                                   : UTF-8
Codec ID                                 : S_TEXT/UTF8
Codec ID/Info                            : UTF-8 Plain Text
Duration                                 : 50 min 12 s
Bit rate                                 : 225 b/s
Frame rate                               : 0.260 FPS
Count of elements                        : 782
Stream size                              : 83.0 KiB (0%)
Language                                 : Tamil
Default                                  : No
Forced                                   : No

Text #37
ID                                       : 39
Format                                   : UTF-8
Codec ID                                 : S_TEXT/UTF8
Codec ID/Info                            : UTF-8 Plain Text
Duration                                 : 50 min 12 s
Bit rate                                 : 217 b/s
Frame rate                               : 0.260 FPS
Count of elements                        : 782
Stream size                              : 79.8 KiB (0%)
Language                                 : Telugu
Default                                  : No
Forced                                   : No

Text #38
ID                                       : 40
Format                                   : UTF-8
Codec ID                                 : S_TEXT/UTF8
Codec ID/Info                            : UTF-8 Plain Text
Duration                                 : 50 min 12 s
Bit rate                                 : 152 b/s
Frame rate                               : 0.260 FPS
Count of elements                        : 783
Stream size                              : 56.2 KiB (0%)
Language                                 : Thai
Default                                  : No
Forced                                   : No

Text #39
ID                                       : 41
Format                                   : UTF-8
Codec ID                                 : S_TEXT/UTF8
Codec ID/Info                            : UTF-8 Plain Text
Duration                                 : 50 min 12 s
Bit rate                                 : 71 b/s
Frame rate                               : 0.249 FPS
Count of elements                        : 749
Stream size                              : 26.4 KiB (0%)
Language                                 : Turkish
Default                                  : No
Forced                                   : No

Text #40
ID                                       : 42
Format                                   : UTF-8
Codec ID                                 : S_TEXT/UTF8
Codec ID/Info                            : UTF-8 Plain Text
Duration                                 : 50 min 12 s
Bit rate                                 : 107 b/s
Frame rate                               : 0.259 FPS
Count of elements                        : 780
Stream size                              : 39.6 KiB (0%)
Language                                 : Ukrainian
Default                                  : No
Forced                                   : No

Text #41
ID                                       : 43
Format                                   : UTF-8
Codec ID                                 : S_TEXT/UTF8
Codec ID/Info                            : UTF-8 Plain Text
Duration                                 : 50 min 12 s
Bit rate                                 : 92 b/s
Frame rate                               : 0.259 FPS
Count of elements                        : 780
Stream size                              : 33.9 KiB (0%)
Language                                 : Vietnamese
Default                                  : No
Forced                                   : No

Text #42
ID                                       : 44
Format                                   : UTF-8
Codec ID                                 : S_TEXT/UTF8
Codec ID/Info                            : UTF-8 Plain Text
Duration                                 : 50 min 12 s
Bit rate                                 : 61 b/s
Frame rate                               : 0.260 FPS
Count of elements                        : 783
Stream size                              : 22.5 KiB (0%)
Title                                    : Traditional
Language                                 : Cantonese (Hant)
Default                                  : No
Forced                                   : No

Menu
00:00:00.000                             : en:Studio Logo
00:00:08.963                             : en:Recap
00:00:52.989                             : en:Scene 01
00:50:12.083                             : en:Credits



Download
File Container: MKV
Video/Audio Codec: H264 (HIGH) EAC3
Video Resolution: 1918x816

1 Response to "[RR/NF] Palm Royale S01E06 Maxine Takes a Step 1080p ATVP WEB-DL DDP5 1 Atmos H 264-FLUX (3.8GB)"
04/10/24
05:26:26
ReadyPlayerOne

Thank you!

Please Login to post a comment.
If you don't have any account, please Register.
  • Subscribe my Feeds
  • Facebook
Encoding Queue:  x264  x265

Latest Episodes

Popular Movies and TV Shows

  • Evil
  • Walker
  • WWE NXT
  • This Is Sparklehorse
  • Melody Time
  • MoviePass, MovieCrash
  • Reginald the Vampire
  • MacGyver
  • Law & Order: Organized Crime
  • Boys on Film 21: Beautiful Secret
  • The Fall Guy
  • Autoerotic
  • Furiosa: A Mad Max Saga
  • Dark Matter
  • MasterChef Australia
  • Under the Bridge
  • The Feeling That the Time for Doing Something Has Passed
  • Nevada Smith
  • The Big Door Prize
  • WWE Raw
  • Loot
  • Your Mother's Son
  • Mahal ko ang mahal mo
  • Civil War
  • The Daily Show

Recent Comments

  • dma: @admin It appears that ClickNupload is no longer usable for free users. Don't know about paying use...
  • Bionicone: Yea this is not the Bluray version. This is another Cam. This thing should be taken down. Do not dow...
  • spiderspinner: Bud:The same thing started happening to me last night and I've used four different browsers yet they...
  • timt:

    Junk, CAM

  • upx:

    WARNING:This is NOT a BluRay rip. It's a CAMrip.

  • Bud: Is clicknupload borked for anyone else now, or is it just me? In recent months it's only worked in...
  • mentalityx:

    Rad bloke!

  • waanaabe: I hope someone follows through with the rest! also, did not check every post but hoping future ones ...
  • Demonz:

    Holy popups ClickNupload

  • rambaldi70:

    this release sort cut! 1h33m12 !
    imdb - 1h 54m

  • rambaldi70: This release the first bad source 1h33m12 - stop the play this release sort cut! 1h33m12 ! imdb - 1h...
  • rambaldi70:

    this release sort cut! 1h33m12 !
    imdb - 1h 54m

  • dilliboy: Will we ever see these RMTeam releases ever again? I hope they're not lost to the digital graveyard ...
  • kang:

    NitroFlare's link is missing...

  • kang:

    NitroFlare's link is missing...

  • tchamast:

    @Wrapt

    I've seen that too, don't know why.

  • Rafi85: Hi thx for the 14th season. Is it possible to reupload some episodes plz they were removed. These ar...
  • KubrickFan:

    Any possibility of a fresh link for this?

  • GubeShitemon: This is a different movie to the artwork version. Not the Dylan McDermott film but the Ben Affleck f...
  • drorsabi1:

    @admin
    Please add "My Adventures With Superman Season 2 "

Archives