Sign Up   |   Sign In  
The PrimevalsBartender: Glass of GodPoftiti pe la noiYou, Me, and that Mountain RetreatNinja TerminatorWreckThe AcolyteDark MatterPresumed InnocentMysteries of the Terracotta WarriorsLost SoulzPet SemataryWWE NXTThe Big Door PrizeTryingHow Music Got FreeThe Beast in the JunglePeggy Sue Got MarriedThe Loud HouseWWE Smackdown!AcapulcoWild Eyed and WickedFrom Russia with LoveA Safari RomanceThe Daily Show

Announcements

05/14

2024

1

Comments

Parish S01E01 Pilot 1080p AMZN WEB-DL DDP5 1 H 264-FLUX
[RR/NF]
Size: 3.4GB mkv H264 (HIGH) / EAC3  HD  1920x1080

Parish
File Information
[img]http://lookpic.com/cdn/i2/t/0514202408404270-1.jpg[/img]
[img]http://lookpic.com/cdn/i2/t/0514202408404270-2.jpg[/img]
[img]http://lookpic.com/cdn/i2/t/0514202408404270-3.jpg[/img]

General
Unique ID                                : 316267950346644674902213631473649046099 (0xEDEEFDD9A544156372AC3F378349D253)
Complete name                            : Parish S01E01 Pilot 1080p AMZN WEB-DL DDP5 1 H 264-FLUX.mkv
Format                                   : Matroska
Format version                           : Version 4
File size                                : 3.42 GiB
Duration                                 : 50 min 15 s
Overall bit rate                         : 9 730 kb/s
Frame rate                               : 23.976 FPS
Writing application                      : mkvmerge v83.0 ('Circle Of Friends') 64-bit
Writing library                          : libebml v1.4.5 + libmatroska v1.7.1

Video
ID                                       : 1
Format                                   : AVC
Format/Info                              : Advanced Video Codec
Format profile                           : High@L4
Format settings                          : CABAC / 4 Ref Frames
Format settings, CABAC                   : Yes
Format settings, Reference frames        : 4 frames
Codec ID                                 : V_MPEG4/ISO/AVC
Duration                                 : 50 min 15 s
Bit rate mode                            : Constant
Bit rate                                 : 9 088 kb/s
Nominal bit rate                         : 10 000 kb/s
Width                                    : 1 920 pixels
Height                                   : 1 080 pixels
Display aspect ratio                     : 16:9
Frame rate mode                          : Constant
Frame rate                               : 23.976 (24000/1001) FPS
Color space                              : YUV
Chroma subsampling                       : 4:2:0
Bit depth                                : 8 bits
Scan type                                : Progressive
Bits/(Pixel*Frame)                       : 0.183
Stream size                              : 3.19 GiB (93%)
Language                                 : English (US)
Default                                  : Yes
Forced                                   : No
Color range                              : Limited
Color primaries                          : BT.709
Transfer characteristics                 : BT.709
Matrix coefficients                      : BT.709

Audio
ID                                       : 2
Format                                   : E-AC-3
Format/Info                              : Enhanced AC-3
Commercial name                          : Dolby Digital Plus
Codec ID                                 : A_EAC3
Duration                                 : 50 min 15 s
Bit rate mode                            : Constant
Bit rate                                 : 640 kb/s
Channel(s)                               : 6 channels
Channel layout                           : L R C LFE Ls Rs
Sampling rate                            : 48.0 kHz
Frame rate                               : 31.250 FPS (1536 SPF)
Compression mode                         : Lossy
Stream size                              : 230 MiB (7%)
Language                                 : English
Service kind                             : Complete Main
Default                                  : Yes
Forced                                   : No

Text #1
ID                                       : 3
Format                                   : UTF-8
Codec ID                                 : S_TEXT/UTF8
Codec ID/Info                            : UTF-8 Plain Text
Duration                                 : 48 min 51 s
Bit rate                                 : 51 b/s
Frame rate                               : 0.208 FPS
Count of elements                        : 611
Stream size                              : 18.4 KiB (0%)
Language                                 : English (US)
Default                                  : No
Forced                                   : No

Text #2
ID                                       : 4
Format                                   : UTF-8
Codec ID                                 : S_TEXT/UTF8
Codec ID/Info                            : UTF-8 Plain Text
Duration                                 : 50 min 10 s
Bit rate                                 : 62 b/s
Frame rate                               : 0.295 FPS
Count of elements                        : 888
Stream size                              : 23.0 KiB (0%)
Title                                    : SDH
Language                                 : English (US)
Default                                  : No
Forced                                   : No

Menu
00:00:00.000                             : en:Scene 1
00:03:15.000                             : en:Scene 2
00:04:15.000                             : en:Scene 3
00:05:05.000                             : en:Scene 4
00:06:14.000                             : en:Scene 5
00:08:15.000                             : en:Scene 6
00:08:48.000                             : en:Scene 7
00:10:46.000                             : en:Scene 8
00:12:17.000                             : en:Scene 9
00:17:39.000                             : en:Scene 10
00:19:00.000                             : en:Scene 11
00:21:03.000                             : en:Scene 12
00:21:51.000                             : en:Scene 13
00:22:47.000                             : en:Scene 14
00:23:48.000                             : en:Scene 15
00:25:10.000                             : en:Scene 16
00:27:55.000                             : en:Scene 17
00:31:06.000                             : en:Scene 18
00:31:55.000                             : en:Scene 19
00:33:11.000                             : en:Scene 20
00:35:48.000                             : en:Scene 21
00:36:38.000                             : en:Scene 22
00:37:09.000                             : en:Scene 23
00:38:42.000                             : en:Scene 24
00:40:26.000                             : en:Scene 25
00:41:08.000                             : en:Scene 26
00:43:13.000                             : en:Scene 27
00:44:30.000                             : en:Scene 28
00:45:02.000                             : en:Scene 29
00:46:30.000                             : en:Scene 30
00:47:04.000                             : en:Scene 31
00:47:50.000                             : en:Scene 32
00:49:03.000                             : en:Scene 33
00:49:37.000                             : en:Scene 34



Download
File Container: MKV
Video/Audio Codec: H264 (HIGH) EAC3
Video Resolution: 1920x1080

1 Response to "[RR/NF] Parish S01E01 Pilot 1080p AMZN WEB-DL DDP5 1 H 264-FLUX (3.4GB)"
05/14/24
11:15:42
ReadyPlayerOne

Thank You

Please Login to post a comment.
If you don't have any account, please Register.
  • Subscribe my Feeds
  • Facebook
Encoding Queue:  x264  x265

Latest Episodes

Popular Movies and TV Shows

  • The Primevals
  • Bartender: Glass of God
  • Poftiti pe la noi
  • You, Me, and that Mountain Retreat
  • Ninja Terminator
  • Wreck
  • The Acolyte
  • Dark Matter
  • Presumed Innocent
  • Mysteries of the Terracotta Warriors
  • Lost Soulz
  • Pet Sematary
  • WWE NXT
  • The Big Door Prize
  • Trying
  • How Music Got Free
  • The Beast in the Jungle
  • Peggy Sue Got Married
  • The Loud House
  • WWE Smackdown!
  • Acapulco
  • Wild Eyed and Wicked
  • From Russia with Love
  • A Safari Romance
  • The Daily Show

Recent Comments

  • KissclTum: [url=https://kisstom.ru/prices]имплант с коронкой цена кисс [/url] Tegs: и...
  • Diggety247:

    BrokenHanded, Try using a DL manager.

  • BrokenHanded: clicknupload does not seem to work for past few days. keep getting an error saying the site is sendi...
  • Bud: Helps if you actually add these to the "Late Night with Seth Meyers" page too...
  • rambaldi70:

    Hy! Right now, my download speed : 1 Mb/s
    this is ok?
    Tx answer

  • Cinque_Persson: At 183 MB this had to be something completely different. In fact it's just the main actors commentin...
  • meyat74:

    my bad, should be full season

  • Oscar2:

    Halo "is" a good show

  • MeH:

    "one of the most impressive scenes"

  • rappet:

    Unfortunately, episode 2 not playing and episode 3 half missing (only 37 minutes long).

  • Anovani:

    Nice 1

  • shark:

    Will there be a sequel?

  • sjors:

    This release in in Russian with Russian subs. No English.

  • RapidRabbit98: I'll ask again Forged in Fire Series 11 episode 1 - anyone have it?

Archives