Sign Up   |   Sign In  
S.W.A.T.Wolf Like MeMaid DroidBlue BloodsThe Fault in Our StarsAazamThe RookieFire CountryDuneAll the Names of GodMalpracticeThe Late GameSpacemanYoung SheldonReal Time with Bill MaherHaloLolaThe SeedingMasters of the AirMegamind vs. The Doom SyndicateGhostsBMFDune: Part TwoNorthern ComfortResident Alien

Announcements

02/09

2024

1

Comments

Power Book III Raising Kanan S03E10 MADE YOU LOOK 720p AMZN WEB-DL DDP5 1 H 264-NTb
[RR/NF/CU]
Size: 1.1GB mkv H264 (HIGH) / EAC3  HD  1280x720

Power Book III: Raising Kanan
File Information
[img]http://lookpic.com/cdn/i2/t/0209202408440538-1.jpg[/img]
[img]http://lookpic.com/cdn/i2/t/0209202408440538-2.jpg[/img]
[img]http://lookpic.com/cdn/i2/t/0209202408440538-3.jpg[/img]

General
Unique ID                                : 303829366716837985532721893963842987775 (0xE49368542CF086187819E1EB76CC26FF)
Complete name                            : Power.Book.III.Raising.Kanan.S03E10.MADE.YOU.LOOK.720p.AMZN.WEB-DL.DDP5.1.H.264-NTb.mkv
Format                                   : Matroska
Format version                           : Version 4
File size                                : 1.11 GiB
Duration                                 : 51 min 54 s
Overall bit rate                         : 3 048 kb/s
Frame rate                               : 23.976 FPS
Writing application                      : mkvmerge v81.0 ('Milliontown') 64-bit
Writing library                          : libebml v1.4.4 + libmatroska v1.7.1

Video
ID                                       : 1
Format                                   : AVC
Format/Info                              : Advanced Video Codec
Format profile                           : High@L3.1
Format settings                          : CABAC / 4 Ref Frames
Format settings, CABAC                   : Yes
Format settings, Reference frames        : 4 frames
Codec ID                                 : V_MPEG4/ISO/AVC
Duration                                 : 51 min 54 s
Bit rate mode                            : Constant
Bit rate                                 : 2 406 kb/s
Nominal bit rate                         : 4 000 kb/s
Width                                    : 1 280 pixels
Height                                   : 720 pixels
Display aspect ratio                     : 16:9
Frame rate mode                          : Constant
Frame rate                               : 23.976 (24000/1001) FPS
Color space                              : YUV
Chroma subsampling                       : 4:2:0
Bit depth                                : 8 bits
Scan type                                : Progressive
Bits/(Pixel*Frame)                       : 0.109
Stream size                              : 893 MiB (79%)
Default                                  : Yes
Forced                                   : No
Color range                              : Limited
Color primaries                          : BT.709
Transfer characteristics                 : BT.709
Matrix coefficients                      : BT.709

Audio
ID                                       : 2
Format                                   : E-AC-3
Format/Info                              : Enhanced AC-3
Commercial name                          : Dolby Digital Plus
Codec ID                                 : A_EAC3
Duration                                 : 51 min 54 s
Bit rate mode                            : Constant
Bit rate                                 : 640 kb/s
Channel(s)                               : 6 channels
Channel layout                           : L R C LFE Ls Rs
Sampling rate                            : 48.0 kHz
Frame rate                               : 31.250 FPS (1536 SPF)
Compression mode                         : Lossy
Stream size                              : 238 MiB (21%)
Language                                 : English (US)
Service kind                             : Complete Main
Default                                  : Yes
Forced                                   : No

Text #1
ID                                       : 3
Format                                   : UTF-8
Codec ID                                 : S_TEXT/UTF8
Codec ID/Info                            : UTF-8 Plain Text
Duration                                 : 50 min 55 s
Bit rate                                 : 85 b/s
Frame rate                               : 0.297 FPS
Count of elements                        : 907
Stream size                              : 31.7 KiB (0%)
Language                                 : English (US)
Default                                  : No
Forced                                   : No

Text #2
ID                                       : 4
Format                                   : UTF-8
Codec ID                                 : S_TEXT/UTF8
Codec ID/Info                            : UTF-8 Plain Text
Duration                                 : 51 min 12 s
Bit rate                                 : 91 b/s
Frame rate                               : 0.341 FPS
Count of elements                        : 1049
Stream size                              : 34.5 KiB (0%)
Title                                    : SDH
Language                                 : English (US)
Default                                  : No
Forced                                   : No

Text #3
ID                                       : 5
Format                                   : UTF-8
Codec ID                                 : S_TEXT/UTF8
Codec ID/Info                            : UTF-8 Plain Text
Duration                                 : 51 min 21 s
Bit rate                                 : 75 b/s
Frame rate                               : 0.273 FPS
Count of elements                        : 840
Stream size                              : 28.5 KiB (0%)
Language                                 : Spanish (Latin America)
Default                                  : No
Forced                                   : No

Text #4
ID                                       : 6
Format                                   : UTF-8
Codec ID                                 : S_TEXT/UTF8
Codec ID/Info                            : UTF-8 Plain Text
Duration                                 : 51 min 21 s
Bit rate                                 : 81 b/s
Frame rate                               : 0.310 FPS
Count of elements                        : 955
Stream size                              : 30.8 KiB (0%)
Title                                    : SDH
Language                                 : Spanish (Latin America)
Default                                  : No
Forced                                   : No



Download
File Container: MKV
Video/Audio Codec: H264 (HIGH) EAC3
Video Resolution: 1280x720

1 Response to "[RR/NF/CU] Power Book III Raising Kanan S03E10 MADE YOU LOOK 720p AMZN WEB-DL DDP5 1 H 264-NTb (1.1GB)"
02/09/24
19:59:38
ReadyPlayerOne

Thank You

Please Login to post a comment.
If you don't have any account, please Register.
  • Subscribe my Feeds
  • Facebook
Encoding Queue:  x264  x265

Latest Episodes

Popular Movies and TV Shows

  • S.W.A.T.
  • Wolf Like Me
  • Maid Droid
  • Blue Bloods
  • The Fault in Our Stars
  • Aazam
  • The Rookie
  • Fire Country
  • Dune
  • All the Names of God
  • Malpractice
  • The Late Game
  • Spaceman
  • Young Sheldon
  • Real Time with Bill Maher
  • Halo
  • Lola
  • The Seeding
  • Masters of the Air
  • Megamind vs. The Doom Syndicate
  • Ghosts
  • BMF
  • Dune: Part Two
  • Northern Comfort
  • Resident Alien

Recent Comments

  • ruf999:

    hanyou

  • uncabrian: If you can, please upload other seasons of "Eureka" in the same format and size. Much appr...
  • pr4455:

    hi this movie has no audio just commentry

  • asalan:

    please reupload.

  • asalan:

    reupload please.

  • newuser:

    need English Sub that Sync

  • Bud:

    Can we get a re-up on the clicknupload link please? Current link is dead.

Archives