Sign Up   |   Sign In  

Announcements

Want to support us?
Buy a RapidRAR account from our resellers:
Buy or renew a NitroFlare account via THIS LINK
We'll stop uploading files to Uploaded.net in December 2017.

04/19

2017

No

Comments

Prison Break S05E03 1080p WEB-DL DD5 1 H264-RARBG
[RR/NF/UL/UR]
Size: 1.7GB mkv H264 (HIGH) / AC3  HD  1916x1076

Prison Break: Sequel
Click on the image to see full size
[RR/NF/UL/UR] Prison Break S05E03 1080p WEB-DL DD5 1 H264-RARBG (1.7GB) - Snapshot 1
File Information
[URL=http://imagecurl.com/viewer.php?file=60410053574219900068.png][IMG]http://imagecurl.com/images/60410053574219900068_thumb.png[/IMG][/URL]
[URL=http://imagecurl.com/viewer.php?file=81259259024500353519.png][IMG]http://imagecurl.com/images/81259259024500353519_thumb.png[/IMG][/URL]
[URL=http://imagecurl.com/viewer.php?file=78137172774563348917.png][IMG]http://imagecurl.com/images/78137172774563348917_thumb.png[/IMG][/URL]
[URL=http://imagecurl.com/viewer.php?file=40356965567673612255.png][IMG]http://imagecurl.com/images/40356965567673612255_thumb.png[/IMG][/URL]
[URL=http://imagecurl.com/viewer.php?file=33551102103001035908.png][IMG]http://imagecurl.com/images/33551102103001035908_thumb.png[/IMG][/URL]
[URL=http://imagecurl.com/viewer.php?file=28955978067973781528.png][IMG]http://imagecurl.com/images/28955978067973781528_thumb.png[/IMG][/URL]



[mediainfo]
Video
ID                                       : 1
Format                                   : AVC
Format/Info                              : Advanced Video Codec
Format profile                           : [email protected]
Format settings, CABAC                   : Yes
Format settings, ReFrames                : 4 frames
Codec ID                                 : V_MPEG4/ISO/AVC
Duration                                 : 43mn 29s
Bit rate                                 : 5 136 Kbps
Width                                    : 1 916 pixels
Height                                   : 1 076 pixels
Display aspect ratio                     : 16:9
Frame rate mode                          : Constant
Frame rate                               : 23.976 (24000/1001) fps
Color space                              : YUV
Chroma subsampling                       : 4:2:0
Bit depth                                : 8 bits
Scan type                                : Progressive
Bits/(Pixel*Frame)                       : 0.104
Stream size                              : 1.56 GiB (91%)
Title                                    : Prison.Break.S05E03.1080p.WEB-DL.DD5.1.H264-RARBG
Language                                 : English
Default                                  : Yes
Forced                                   : No
Color range                              : Limited
Color primaries                          : BT.709
Transfer characteristics                 : BT.709
Matrix coefficients                      : BT.709

Audio
ID                                       : 2
Format                                   : AC-3
Format/Info                              : Audio Coding 3
Mode extension                           : CM (complete main)
Format settings, Endianness              : Big
Codec ID                                 : A_AC3
Duration                                 : 43mn 29s
Bit rate mode                            : Constant
Bit rate                                 : 384 Kbps
Channel(s)                               : 6 channels
Channel positions                        : Front: L C R, Side: L R, LFE
Sampling rate                            : 48.0 KHz
Frame rate                               : 31.250 fps (1536 spf)
Compression mode                         : Lossy
Stream size                              : 119 MiB (7%)
Title                                    : Prison.Break.S05E03.1080p.WEB-DL.DD5.1.H264-RARBG
Language                                 : English
Default                                  : Yes
Forced                                   : No

Text #1
ID                                       : 3
Format                                   : UTF-8
Codec ID                                 : S_TEXT/UTF8
Codec ID/Info                            : UTF-8 Plain Text
Language                                 : English
Default                                  : Yes
Forced                                   : No

Text #2
ID                                       : 4
Format                                   : UTF-8
Codec ID                                 : S_TEXT/UTF8
Codec ID/Info                            : UTF-8 Plain Text
Title                                    : SDH
Language                                 : English
Default                                  : No
Forced                                   : No



[/mediainfo]
Download
File Container: MKV
Video/Audio Codec: H264 (HIGH) AC3
Video Resolution: 1916x1076
 
 
 
 

Show us some love

Leave a Comment

  • (never displayed)
  •  
        Members don't see captchas. Sign Up / Sign In
  • Notify me via email when someone responds.
  • Subscribe my Feeds
  • Facebook

Latest Episodes

Popular Movies and TV Shows

  • Outlander
  • Gunpowder
  • Dirk Gently's Holistic Detective Agency
  • Hacker
  • Leatherface
  • Die unendliche Geschichte
  • American Psycho II: All American Girl
  • The Adventurers
  • Inhumans
  • The Barefoot Bandits
  • Supernatural
  • American Made
  • The Exorcist
  • SMILF
  • Hawaii Five-0
  • The Good Catholic
  • Bastard
  • Atomic Blonde
  • MacGyver
  • Z Nation
  • Once Upon a Time
  • Jungle
  • Wheelman
  • The Dark Tower
  • Arrow

Recent Comments

  • thaone:

    Thank You

  • Atoz: @Meridian— Much respect! I hope ImdaPrincesse sees your comment. I'd like to take this opportunity...
  • meridian: @ImdaPrincesseI've found a combination that works, without too much frustration. One big caveat is ...
  • thaone:

    Thank You

  • thaone:

    Thank You

  • thaone:

    Thank You

  • thaone:

    Thank You

  • thaone:

    Thank You

  • thaone:

    Thank You

  • Mick: Anyone know what the deal is with Thunderbirds are Go! Episode 2x16 just showed up though looks like...