Sign Up   |   Sign In  
WWE NXTEvilWalkerColdplay Live in São PauloIn the Line of FireThe Bold and the BeautifulReginald the VampireInside No. 9The Artifice GirlOriginPulp FictionThe AcolytePresumed InnocentDark MatterThe PrimevalsMysteries of the Terracotta WarriorsCamille 2000The Big Door PrizeTryingWWE RawLost SoulzHow Music Got FreeBad Boys: Ride or DieThe Daily ShowWWE Smackdown!

Announcements

05/20

2024

1

Comments

Prodigal Son S02E01 Its All In The Execution 720p AMZN WEB-DL DDP5 1 H 264-NTb
[RR/NF/CU]
Size: 1.7GB mkv H264 (HIGH) / EAC3  HD  1280x640

Prodigal Son
File Information
[img]http://lookpic.com/cdn/i2/t/0520202402240566-1.jpg[/img]
[img]http://lookpic.com/cdn/i2/t/0520202402240566-2.jpg[/img]
[img]http://lookpic.com/cdn/i2/t/0520202402240566-3.jpg[/img]

General
Unique ID                                : 307687197887180053787272068233544980877 (0xE77A661734023D4EA3BBC846EAA9D98D)
Complete name                            : Prodigal Son S02E01 Its All In The Execution 720p AMZN WEB-DL DDP5 1 H 264-NTb.mkv
Format                                   : Matroska
Format version                           : Version 4
File size                                : 1.73 GiB
Duration                                 : 43 min 28 s
Overall bit rate                         : 5 699 kb/s
Frame rate                               : 23.976 FPS
Writing application                      : mkvmerge v45.0.0 ('Heaven in Pennies') 64-bit
Writing library                          : libebml v1.3.10 + libmatroska v1.5.2

Video
ID                                       : 1
Format                                   : AVC
Format/Info                              : Advanced Video Codec
Format profile                           : High@L3.1
Format settings                          : CABAC / 4 Ref Frames
Format settings, CABAC                   : Yes
Format settings, Reference frames        : 4 frames
Codec ID                                 : V_MPEG4/ISO/AVC
Duration                                 : 43 min 28 s
Bit rate mode                            : Constant
Bit rate                                 : 5 057 kb/s
Nominal bit rate                         : 6 000 kb/s
Width                                    : 1 280 pixels
Height                                   : 640 pixels
Display aspect ratio                     : 2.000
Frame rate mode                          : Constant
Frame rate                               : 23.976 (24000/1001) FPS
Color space                              : YUV
Chroma subsampling                       : 4:2:0
Bit depth                                : 8 bits
Scan type                                : Progressive
Bits/(Pixel*Frame)                       : 0.257
Stream size                              : 1.54 GiB (89%)
Default                                  : Yes
Forced                                   : No
Color range                              : Limited
Color primaries                          : BT.709
Transfer characteristics                 : BT.709
Matrix coefficients                      : BT.709

Audio
ID                                       : 2
Format                                   : E-AC-3
Format/Info                              : Enhanced AC-3
Commercial name                          : Dolby Digital Plus
Codec ID                                 : A_EAC3
Duration                                 : 43 min 28 s
Bit rate mode                            : Constant
Bit rate                                 : 640 kb/s
Channel(s)                               : 6 channels
Channel layout                           : L R C LFE Ls Rs
Sampling rate                            : 48.0 kHz
Frame rate                               : 31.250 FPS (1536 SPF)
Compression mode                         : Lossy
Stream size                              : 199 MiB (11%)
Language                                 : English
Service kind                             : Complete Main
Default                                  : Yes
Forced                                   : No

Text
ID                                       : 3
Format                                   : UTF-8
Codec ID                                 : S_TEXT/UTF8
Codec ID/Info                            : UTF-8 Plain Text
Duration                                 : 43 min 23 s
Bit rate                                 : 78 b/s
Frame rate                               : 0.375 FPS
Count of elements                        : 976
Stream size                              : 25.0 KiB (0%)
Title                                    : SDH
Language                                 : English
Default                                  : No
Forced                                   : No



Download
File Container: MKV
Video/Audio Codec: H264 (HIGH) EAC3
Video Resolution: 1280x640

1 Response to "[RR/NF/CU] Prodigal Son S02E01 Its All In The Execution 720p AMZN WEB-DL DDP5 1 H 264-NTb (1.7GB)"
05/20/24
02:43:58
ReadyPlayerOne

Thank you!

Please Login to post a comment.
If you don't have any account, please Register.
  • Subscribe my Feeds
  • Facebook
Encoding Queue:  x264  x265

Latest Episodes

Popular Movies and TV Shows

  • WWE NXT
  • Evil
  • Walker
  • Coldplay Live in São Paulo
  • In the Line of Fire
  • The Bold and the Beautiful
  • Reginald the Vampire
  • Inside No. 9
  • The Artifice Girl
  • Origin
  • Pulp Fiction
  • The Acolyte
  • Presumed Innocent
  • Dark Matter
  • The Primevals
  • Mysteries of the Terracotta Warriors
  • Camille 2000
  • The Big Door Prize
  • Trying
  • WWE Raw
  • Lost Soulz
  • How Music Got Free
  • Bad Boys: Ride or Die
  • The Daily Show
  • WWE Smackdown!

Recent Comments

  • KissclTum: [url=https://kisstom.ru/prices]имплант с коронкой цена кисс [/url] Tegs: и...
  • Diggety247:

    BrokenHanded, Try using a DL manager.

  • BrokenHanded: clicknupload does not seem to work for past few days. keep getting an error saying the site is sendi...
  • Bud: Helps if you actually add these to the "Late Night with Seth Meyers" page too...
  • rambaldi70:

    Hy! Right now, my download speed : 1 Mb/s
    this is ok?
    Tx answer

  • Cinque_Persson: At 183 MB this had to be something completely different. In fact it's just the main actors commentin...
  • meyat74:

    my bad, should be full season

  • Oscar2:

    Halo "is" a good show

  • MeH:

    "one of the most impressive scenes"

  • rappet:

    Unfortunately, episode 2 not playing and episode 3 half missing (only 37 minutes long).

  • Anovani:

    Nice 1

  • shark:

    Will there be a sequel?

  • sjors:

    This release in in Russian with Russian subs. No English.

  • RapidRabbit98: I'll ask again Forged in Fire Series 11 episode 1 - anyone have it?

Archives