Sign Up   |   Sign In  

Announcements

Want to support us?
Buy a RapidRAR account from our resellers:
Buy or renew a NitroFlare account via THIS LINK

04/19

2017

No

Comments

Quantico S02E18 KUMONK 1080p AMZN WEBRip DD5 1 x264-DON
[RR/NF/UL]
Size: 4.1GB mkv H264 (HIGH) / EAC3  HD  1920x1080

Quantico
Click on the image to see full size
[RR/NF/UL] Quantico S02E18 KUMONK 1080p AMZN WEBRip DD5 1 x264-DON (4.1GB) - Snapshot 1
File Information
[URL=http://imagecurl.com/viewer.php?file=06175628437967551005.png][IMG]http://imagecurl.com/images/06175628437967551005_thumb.png[/IMG][/URL]
[URL=http://imagecurl.com/viewer.php?file=38817298724395861450.png][IMG]http://imagecurl.com/images/38817298724395861450_thumb.png[/IMG][/URL]
[URL=http://imagecurl.com/viewer.php?file=10950417347190561431.png][IMG]http://imagecurl.com/images/10950417347190561431_thumb.png[/IMG][/URL]
[URL=http://imagecurl.com/viewer.php?file=43208201727010257847.png][IMG]http://imagecurl.com/images/43208201727010257847_thumb.png[/IMG][/URL]
[URL=http://imagecurl.com/viewer.php?file=33571542114563972105.png][IMG]http://imagecurl.com/images/33571542114563972105_thumb.png[/IMG][/URL]
[URL=http://imagecurl.com/viewer.php?file=77654842044327653204.png][IMG]http://imagecurl.com/images/77654842044327653204_thumb.png[/IMG][/URL]



[mediainfo]
Video
ID                                       : 1
Format                                   : AVC
Format/Info                              : Advanced Video Codec
Format profile                           : [email protected]
Format settings, CABAC                   : Yes
Format settings, ReFrames                : 4 frames
Codec ID                                 : V_MPEG4/ISO/AVC
Duration                                 : 42mn 58s
Bit rate                                 : 13.1 Mbps
Width                                    : 1 920 pixels
Height                                   : 1 080 pixels
Display aspect ratio                     : 16:9
Frame rate mode                          : Constant
Frame rate                               : 23.976 (24000/1001) fps
Color space                              : YUV
Chroma subsampling                       : 4:2:0
Bit depth                                : 8 bits
Scan type                                : Progressive
Bits/(Pixel*Frame)                       : 0.264
Stream size                              : 3.95 GiB (95%)
Writing library                          : x264 core 148 r2744 b97ae06
 Encoding settings                        : cabac=1 / ref=4 / deblock=1:-3:-3 / analyse=0x3:0x133 / me=umh / subme=10 / psy=1 / psy_rd=1.00:0.00 / mixed_ref=1 / me_range=32 / chroma_me=1 / trellis=2 / 8x8dct=1 / cqm=0 / deadz / fast pskip=0 / chroma_qp_offset=-2 / threads=12 / lookahead_threads=2 / sliced_threads=0 / nr=0 / decimate=0 / interlaced=0 / bluray_compat=0 / c / bframes=8 / b_pyramid=2 / b_adapt=2 / b_bias=0 / direct=3 / weightb=1 / open_gop=0 / weightp=2 / keyint=250 / keyint_min=24 / scenecut=40 / intra_refresh=0 / rc_lookahead=150 / rc=crf / mbtree=0 / crf=17.4 / qcomp=0.60 / qpmin=0 / qpmax=69 / qpstep=4 / vbv_maxrate=62500 / vbv_bufsize=78125 / crf_max=0.0 / nal_hrd=none / filler=0 / ip_ratio=1.35 / pb_ratio=1.25 / aq=3:0.80
Language                                 : English
Default                                  : Yes
Forced                                   : No

Audio
ID                                       : 2
Format                                   : E-AC-3
Format/Info                              : Audio Coding 3
Format settings, Endianness              : Big
Codec ID                                 : A_EAC3
Duration                                 : 42mn 58s
Bit rate mode                            : Constant
Bit rate                                 : 640 Kbps
Channel(s)                               : 6 channels
Channel positions                        : Front: L C R, Side: L R, LFE
Sampling rate                            : 48.0 KHz
Frame rate                               : 187.500 fps (256 spf)
Compression mode                         : Lossy
Stream size                              : 197 MiB (5%)
Language                                 : English
Default                                  : Yes
Forced                                   : No

Text #1
ID                                       : 3
Format                                   : UTF-8
Codec ID                                 : S_TEXT/UTF8
Codec ID/Info                            : UTF-8 Plain Text
Duration                                 : 42mn 20s
Bit rate                                 : 102 bps
Count of elements                        : 951
Stream size                              : 31.8 KiB (0%)
Language                                 : English
Default                                  : No
Forced                                   : No

Text #2
ID                                       : 4
Format                                   : UTF-8
Codec ID                                 : S_TEXT/UTF8
Codec ID/Info                            : UTF-8 Plain Text
Duration                                 : 42mn 20s
Bit rate                                 : 105 bps
Count of elements                        : 983
Stream size                              : 32.7 KiB (0%)
Title                                    : SDH
Language                                 : English
Default                                  : No
Forced                                   : No



[/mediainfo]
Download
File Container: MKV
Video/Audio Codec: H264 (HIGH) EAC3
Video Resolution: 1920x1080
 
 
 

Show us some love

Leave a Comment

  • (never displayed)
  •  
        Members don't see captchas. Sign Up / Sign In
  • Notify me via email when someone responds.
  • Subscribe my Feeds
  • Facebook

Latest Episodes

Popular Movies and TV Shows

  • iZombie
  • Downward Dog
  • Animal Kingdom
  • A Few Less Men
  • Black Butterfly
  • The Lost City of Z
  • Pretty Little Liars
  • America's Got Talent
  • World of Dance
  • Their Finest
  • Alien: Covenant
  • Trespass
  • Wrecked
  • Broken
  • Preacher
  • After School Special
  • Avalon
  • Transformers: The Last Knight
  • Stitchers
  • Glastonbury 2017
  • Shadowhunters
  • Don't Hang Up
  • ExPatriot
  • Smurfs: The Lost Village
  • Silicon Valley

Recent Comments

  • Blue Moon: @fiona v MeH is absolutely right you stupid slut. only uploaded account is suspended right now all o...
  • MeH: @ fiona v "I tried every host that posted links and they all said the same thing"No, you d...
  • MeH:

    It would be appreciated if anyone could reupload this.

  • fiona v: @Blue Moon Keep your insults to yourself I tried every host that posted links and they all said the...
  • thaone:

    Thanks

  • thaone:

    Thanks

  • thaone:

    Thanks

  • theone:

    thanks

  • theone:

    thanks

  • theone:

    thanks