Sign Up   |   Sign In  

Announcements

Want to support us?
Buy a RapidRAR account from our resellers:
Buy or renew a NitroFlare account via THIS LINK

04/18

2017

No

Comments

Ransom S01E13 WEB-DL x264-RARBG
[RR/NF/UL/OL/UR/CU]
Size: 245MB mp4 H264 (HIGH) (AVC1) / AAC (LC) (MP4A) 720x400

Ransom
Click on the image to see full size
[RR/NF/UL/OL/UR/CU] Ransom S01E13 WEB-DL x264-RARBG (245MB) - Snapshot 1[RR/NF/UL/OL/UR/CU] Ransom S01E13 WEB-DL x264-RARBG (245MB) - Snapshot 2
File Information
[URL]http://www.imdb.com/title/tt5809150/[/URL]
[screenshots]
[URL=http://imagecurl.com/viewer.php?file=61844411662428924740.png][IMG]http://imagecurl.com/images/61844411662428924740_thumb.png[/IMG][/URL]
[URL=http://imagecurl.com/viewer.php?file=82012172759698590963.png][IMG]http://imagecurl.com/images/82012172759698590963_thumb.png[/IMG][/URL]
[URL=http://imagecurl.com/viewer.php?file=08346166181804910448.png][IMG]http://imagecurl.com/images/08346166181804910448_thumb.png[/IMG][/URL]
[URL=http://imagecurl.com/viewer.php?file=24945468763976591141.png][IMG]http://imagecurl.com/images/24945468763976591141_thumb.png[/IMG][/URL]

[/screenshots]


[mediainfo]
Video
ID                                       : 1
Format                                   : AVC
Format/Info                              : Advanced Video Codec
Format profile                           : [email protected]
Format settings, CABAC                   : Yes
Format settings, ReFrames                : 5 frames
Codec ID                                 : avc1
Codec ID/Info                            : Advanced Video Coding
Duration                                 : 41mn 47s
Bit rate                                 : 686 Kbps
Width                                    : 720 pixels
Height                                   : 400 pixels
Display aspect ratio                     : 16:9
Original display aspect ratio            : 16:9
Frame rate mode                          : Constant
Frame rate                               : 23.976 (24000/1001) fps
Color space                              : YUV
Chroma subsampling                       : 4:2:0
Bit depth                                : 8 bits
Scan type                                : Progressive
Bits/(Pixel*Frame)                       : 0.099
Stream size                              : 205 MiB (84%)
Title                                    : RARBG.COM - Ransom.S01E13.WEB-DL.x264-RARBG
Writing library                          : x264 core 148 r2597M e86f3a1
 Encoding settings                        : cabac=1 / ref=5 / deblock=1:-1:-1 / analyse=0x3:0x113 / me=umh / subme=9 / psy=1 / psy_rd=1.00:0.15 / mixed_ref=1 / me_range=16 / chroma_me=1 / trellis=2 / 8x8dct=1 / cqm=0 / deadz / fast pskip=1 / chroma_qp_offset=-3 / threads=12 / lookahead_threads=1 / sliced_threads=0 / nr=0 / decimate=1 / interlaced=0 / bluray_compat=0 / c / bframes=3 / b_pyramid=2 / b_adapt=2 / b_bias=0 / direct=3 / weightb=1 / open_gop=0 / weightp=2 / keyint=250 / keyint_min=23 / scenecut=40 / intra_refresh=0 / rc_lookahead=50 / rc=crf / mbtree=1 / crf=19.0 / qcomp=0.60 / qpmin=0 / qpmax=69 / qpstep=4 / ip_ratio=1.40 / aq=1:1.00
Language                                 : English
Encoded date                             : UTC 2017-04-18 08:26:20
Tagged date                              : UTC 2017-04-18 08:26:20

Audio
ID                                       : 2
Format                                   : AAC
Format/Info                              : Advanced Audio Codec
Format profile                           : LC
Codec ID                                 : 40
Duration                                 : 41mn 47s
Duration_LastFrame                       : -11ms
Bit rate mode                            : Constant
Bit rate                                 : 128 Kbps
Channel(s)                               : 2 channels
Channel positions                        : Front: L R
Sampling rate                            : 48.0 KHz
Frame rate                               : 46.875 fps (1024 spf)
Compression mode                         : Lossy
Stream size                              : 38.3 MiB (16%)
Title                                    : RARBG.COM - Ransom.S01E13.WEB-DL.x264-RARBG
Language                                 : English
Default                                  : Yes
Alternate group                          : 1
Encoded date                             : UTC 2017-04-18 08:26:20
Tagged date                              : UTC 2017-04-18 08:26:20



[/mediainfo]
Download
File Container: MP4
Video/Audio Codec: H264 (HIGH) (AVC1) AAC (LC) (MP4A)
Video Resolution: 720x400
 
 
 
 
 
 

Show us some love

Leave a Comment

  • (never displayed)
  •  
        Members don't see captchas. Sign Up / Sign In
  • Notify me via email when someone responds.
  • Subscribe my Feeds
  • Facebook

Latest Episodes

Popular Movies and TV Shows

  • The Sinner
  • Salvation
  • Revolt
  • South Park
  • Berlin Syndrome
  • The Reckoning
  • You're the Worst
  • The Good Place
  • Channel Zero
  • Deep Burial
  • Descendants 2
  • A Girl Like Her
  • White Collar
  • Porters
  • American Horror Story
  • Suntan
  • Goon: Last of the Enforcers
  • Nieve negra
  • Alpha House
  • Bad Move
  • I am Frankie
  • A Ghost Story
  • VHS Massacre: Cult Films and the Decline of Physical Media
  • Live from Space
  • Midnight, Texas

Recent Comments

  • jim: Hi, will you be doing a 1080p HEVC x265 encode of the new series of DOC Martin S08E01 please mate...
  • gusto:

    Thank You Again,You´re The Best!

  • deadweight:

    Y'all really need to work on your screenshots

  • reddevil:

    Pls finish the series with 720p x265 for Aplpha House s02e09

  • reddevil:

    Pls finish the series with 720p x265 for Aplpha House s02e09

  • 2xplosive:

    720 x 265 please

  • aaaaa: man. please upload them some where else. no good free download features. and uploadrocket is a wreck...
  • dace:

    Thank you

  • frankwysz:

    Pls reupload season 1 of Alpha House. Thank you.

  • Cafeine:

    Pictures don't match "The Vietnam War"…