Sign Up   |   Sign In  

Announcements

Want to support us?
Buy a RapidRAR account from our resellers:
Buy or renew a NitroFlare account via THIS LINK
We'll stop uploading files to Uploaded.net in December 2017.

10/11

2017

1

Comments

Red Dwarf S12E01 Cured UNTOUCHED iNTERNAL WEB H264-SFM
[RR/NF/UL/OL/OLw/UR/CU]
Size: 406MB MP4 Streaming mkv H264 (HIGH) / AAC (LC) 720x404

Red Dwarf
Click on the image to see full size
[RR/NF/UL/OL/OLw/UR/CU] Red Dwarf S12E01 Cured UNTOUCHED iNTERNAL WEB H264-SFM (406MB) - Snapshot 1[RR/NF/UL/OL/OLw/UR/CU] Red Dwarf S12E01 Cured UNTOUCHED iNTERNAL WEB H264-SFM (406MB) - Snapshot 2
File Information
                                                                                                                                 
 ad88888ba               88  88888888888  88  88b           d88                           88                                     
d8"     "8b              ""  88           ""  888b         d888                           ""                                     
Y8,                          88               88`8b       d8'88                                                                  
`Y8aaaaa,     ,adPPYba,  88  88aaaaa      88  88 `8b     d8' 88  ,adPPYYba,  8b,dPPYba,   88  ,adPPYYba,   ,adPPYba,  ,adPPYba,  
  `"""""8b,  a8"     ""  88  88"""""      88  88  `8b   d8'  88  ""     `Y8  88P'   `"8a  88  ""     `Y8  a8"     ""  I8[    ""  
        `8b  8b          88  88           88  88   `8b d8'   88  ,adPPPPP88  88       88  88  ,adPPPPP88  8b           `"Y8ba,   
Y8a     a8P  "8a,   ,aa  88  88           88  88    `888'    88  88,    ,88  88       88  88  88,    ,88  "8a,   ,aa  aa    ]8I  
 "Y88888P"    `"Ybbd8"'  88  88           88  88     `8'     88  `"8bbdP"Y8  88       88  88  `"8bbdP"Y8   `"Ybbd8"'  `"YbbdP"'  
                                                                                                                                 
                                                                                                                                 
    ad8bba,  ,aa      ad8bba,  ,aa      ad8bba,  ,aa      ad8bba,  ,aa      ad8bba,  ,aa      ad8bba,  ,aa      ad8bba,  ,aa        
   ""    ""Y8P"      ""    ""Y8P"      ""    ""Y8P"      ""    ""Y8P"      ""    ""Y8P"      ""    ""Y8P"      ""    ""Y8P"         
                                                                                                                                 
                       
     Red.Dwarf.S12E01.Cured.UNTOUCHED.WEB.H264-SFM

01  "Cured"   October 4 2017 WEB only

01   "Cured"    October 12 2017 TV Airdate


Synopsis          : The crew discover a ship that has a cure for evil.


imdb            : http://www.imdb.com/title/tt0094535/
 
Format            : Matroska at 1 930 kb/s
Length            : 407 MiB for 29 mins 27s

Video #0          : AVC at 1800 kb/s
Aspect            : 720 x 404 (1.782) at 25.000 fps

Audio #0          : AAC at 128kb/s
Infos             : 2 channels, 48.0 kHz (LC)
Language          : en

Source    : 720x404p                               
 
                                                                                                                                
    ad8bba,  ,aa      ad8bba,  ,aa      ad8bba,  ,aa      ad8bba,  ,aa      ad8bba,  ,aa      ad8bba,  ,aa      ad8bba,  ,aa        
   ""    ""Y8P"      ""    ""Y8P"      ""    ""Y8P"      ""    ""Y8P"      ""    ""Y8P"      ""    ""Y8P"      ""    ""Y8P"      



Notes: Other than the change to a Matroska container this is as on server no trimming, replacement of intro sequence etc,
the source file on server has now been replaced with one with the Dave logo,so we decided may as well release this ,even if it is internal,
hopefully someone will do the HD version tomorrow.
We noted that the other groups release had a different intro sequence before the start of red dwarf itself which was strange.

Here is the info for the file from source "CTON078D85H"

Video
ID                                       : 1
Format                                   : AVC
Format/Info                              : Advanced Video Codec
Format profile                           : [email protected]
Format settings                          : CABAC / 3 Ref Frames
Format settings, CABAC                   : Yes
Format settings, RefFrames               : 3 frames
Codec ID                                 : V_MPEG4/ISO/AVC
Duration                                 : 29 min 27 s
Bit rate                                 : 1 800 kb/s
Width                                    : 720 pixels
Height                                   : 404 pixels
Display aspect ratio                     : 16:9
Frame rate mode                          : Constant
Frame rate                               : 25.000 FPS
Color space                              : YUV
Chroma subsampling                       : 4:2:0
Bit depth                                : 8 bits
Scan type                                : Progressive
Bits/(Pixel*Frame)                       : 0.248
Stream size                              : 379 MiB (93%)
Writing library                          : Zencoder Video Encoding System
Default                                  : Yes
Forced                                   : No

Audio
ID                                       : 2
Format                                   : AAC
Format/Info                              : Advanced Audio Codec
Format profile                           : LC
Codec ID                                 : A_AAC-2
Duration                                 : 29 min 27 s
Bit rate                                 : 128 kb/s
Channel(s)                               : 2 channels
Channel positions                        : Front: L R
Sampling rate                            : 48.0 kHz
Frame rate                               : 46.875 FPS (1024 SPF)
Compression mode                         : Lossy
Delay relative to video                  : -54 ms
Stream size                              : 26.9 MiB (7%)
Default                                  : Yes
Forced                                   : No
                                                                                      
                                                                                                                               

    ad8bba,  ,aa      ad8bba,  ,aa      ad8bba,  ,aa      ad8bba,  ,aa      ad8bba,  ,aa      ad8bba,  ,aa      ad8bba,  ,aa        
   ""    ""Y8P"      ""    ""Y8P"      ""    ""Y8P"      ""    ""Y8P"      ""    ""Y8P"      ""    ""Y8P"      ""    ""Y8P"      


      
Download
File Container: MKV
Video/Audio Codec: H264 (HIGH) AAC (LC)
Video Resolution: 720x404
 
 
 
 
 
 
Watch Online [MP4]

Show us some love

1 Response to "[RR/NF/UL/OL/OLw/UR/CU] Red Dwarf S12E01 Cured UNTOUCHED iNTERNAL WEB H264-SFM (406MB)"
10/11/17
20:11:50
Admin

RapidRAR re-uploaded with new RAR file(s) (users who couldn't download some parts need to download all parts again).

Leave a Comment

  • (never displayed)
  •  
        Members don't see captchas. Sign Up / Sign In
  • Notify me via email when someone responds.
  • Subscribe my Feeds
  • Facebook

Latest Episodes

Popular Movies and TV Shows

  • Arrow
  • Supernatural
  • S.W.A.T.
  • Gilbert
  • Kiss and Kill
  • Dismissed
  • Young Sheldon
  • The Indian Detective
  • Trailer Park Boys: Out of the Park
  • Cuba and the Cameraman
  • Marie Curie
  • American Assassin
  • Mom
  • Life in Pieces
  • The Shannara Chronicles
  • Snezhnaya koroleva 3. Ogon i led
  • Terminator 2: Judgment Day
  • American Made
  • Mr. Robot
  • Stan Against Evil
  • SEAL Team
  • The Good Neighbor
  • Geostorm
  • Hangman
  • The Flash

Recent Comments