Sign Up   |   Sign In  
The 100th: Billy Joel at Madison Square Garden - The Greatest Arena Run of All TimeFamily GuyHundreds of BeaversI Was Reincarnated as the 7th Prince So I Can Take My Time Perfecting My Magical AbilityHomicide: New YorkAbba: How They Won EurovisionThe SympathizerTrackerDune: Part TwoModel HouseThe Great NorthKurt Cobain: Moments That Shook MusicWhen Calls the HeartSullivan's CrossingThe Batman vs. DraculaBeacon 23The ChannelThere's Still TomorrowFalloutShogunS.W.A.T.Trinket BoxTo Die ForThe Taste of ThingsFBI

Announcements

02/29

2024

1

Comments

Resident Alien S03E03 1080p 10bit WEBRip 6CH X265 HEVC-PSA
[RR/NF/CU]
Size: 506MB mkv HEVC (MAIN 10) / AAC (HE-AAC)  HD  1920x1080

Resident Alien
File Information
[img]http://lookpic.com/cdn/i2/t/0229202410472896-1.jpg[/img]
[img]http://lookpic.com/cdn/i2/t/0229202410472896-2.jpg[/img]
[img]http://lookpic.com/cdn/i2/t/0229202410472896-3.jpg[/img]

General
Unique ID                                : 215653705559328421338979738651677228058 (0xA23D64961BD78DA0CFEE51382118FC1A)
Complete name                            : Resident.Alien.S03E03.1080p.10bit.WEBRip.6CH.x265.HEVC-PSA.mkv
Format                                   : Matroska
Format version                           : Version 4
File size                                : 507 MiB
Duration                                 : 44 min 3 s
Overall bit rate                         : 1 608 kb/s
Frame rate                               : 23.976 FPS
Movie name                               : PSArips.com | Resident.Alien.S03E03.1080p.10bit.WEBRip.6CH.x265.HEVC-PSA
Encoded date                             : 2024-02-29 07:24:43 UTC
Writing application                      : mkvmerge v82.0 ('I'm The President') 64-bit
Writing library                          : libebml v1.4.5 + libmatroska v1.7.1

Video
ID                                       : 1
Format                                   : HEVC
Format/Info                              : High Efficiency Video Coding
Format profile                           : Main 10@L4@Main
Codec ID                                 : V_MPEGH/ISO/HEVC
Duration                                 : 44 min 3 s
Bit rate                                 : 1 396 kb/s
Width                                    : 1 920 pixels
Height                                   : 1 080 pixels
Display aspect ratio                     : 16:9
Frame rate mode                          : Constant
Frame rate                               : 23.976 (24000/1001) FPS
Color space                              : YUV
Chroma subsampling                       : 4:2:0
Bit depth                                : 10 bits
Bits/(Pixel*Frame)                       : 0.028
Stream size                              : 440 MiB (87%)
Default                                  : Yes
Forced                                   : No
Color range                              : Limited
Color primaries                          : BT.709
Transfer characteristics                 : BT.709
Matrix coefficients                      : BT.709

Audio
ID                                       : 2
Format                                   : AAC LC SBR
Format/Info                              : Advanced Audio Codec Low Complexity with Spectral Band Replication
Commercial name                          : HE-AAC
Format settings                          : Explicit
Codec ID                                 : A_AAC-2
Duration                                 : 44 min 3 s
Bit rate                                 : 210 kb/s
Channel(s)                               : 6 channels
Channel layout                           : C L R Ls Rs LFE
Sampling rate                            : 48.0 kHz
Frame rate                               : 23.438 FPS (2048 SPF)
Compression mode                         : Lossy
Delay relative to video                  : 23 ms
Stream size                              : 66.3 MiB (13%)
Language                                 : English
Default                                  : Yes
Forced                                   : No

Text #1
ID                                       : 3
Format                                   : UTF-8
Codec ID                                 : S_TEXT/UTF8
Codec ID/Info                            : UTF-8 Plain Text
Duration                                 : 43 min 57 s
Bit rate                                 : 84 b/s
Frame rate                               : 0.342 FPS
Count of elements                        : 903
Stream size                              : 27.1 KiB (0%)
Language                                 : English (US)
Default                                  : Yes
Forced                                   : No

Text #2
ID                                       : 4
Format                                   : UTF-8
Codec ID                                 : S_TEXT/UTF8
Codec ID/Info                            : UTF-8 Plain Text
Duration                                 : 43 min 57 s
Bit rate                                 : 91 b/s
Frame rate                               : 0.390 FPS
Count of elements                        : 1029
Stream size                              : 29.6 KiB (0%)
Title                                    : SDH
Language                                 : English (US)
Default                                  : No
Forced                                   : No

Menu
00:00:00.000                             : en:Scene 1
00:43:31.000                             : en:End Credits



Download
File Container: MKV
Video/Audio Codec: HEVC (MAIN 10) AAC (HE-AAC)
Video Resolution: 1920x1080

1 Response to "[RR/NF/CU] Resident Alien S03E03 1080p 10bit WEBRip 6CH X265 HEVC-PSA (506MB)"
02/29/24
12:49:33
ReadyPlayerOne

Thank You

Please Login to post a comment.
If you don't have any account, please Register.
  • Subscribe my Feeds
  • Facebook
Encoding Queue:  x264  x265

Latest Episodes

Popular Movies and TV Shows

  • The 100th: Billy Joel at Madison Square Garden - The Greatest Arena Run of All Time
  • Family Guy
  • Hundreds of Beavers
  • I Was Reincarnated as the 7th Prince So I Can Take My Time Perfecting My Magical Ability
  • Homicide: New York
  • Abba: How They Won Eurovision
  • The Sympathizer
  • Tracker
  • Dune: Part Two
  • Model House
  • The Great North
  • Kurt Cobain: Moments That Shook Music
  • When Calls the Heart
  • Sullivan's Crossing
  • The Batman vs. Dracula
  • Beacon 23
  • The Channel
  • There's Still Tomorrow
  • Fallout
  • Shogun
  • S.W.A.T.
  • Trinket Box
  • To Die For
  • The Taste of Things
  • FBI

Recent Comments

  • Bud:

    Are you ever going to put up Thursday's episode with Liev Schreiber?

  • alp-engin:

    When will that maintenance be over? Please...

  • mentalityx:

    Rad bloke

  • DownloadHostInspector:

    so far these RMTeam uploads always have a working link. DownloadHostInspector approved!

  • DownloadHostInspector:

    ah yes, this upload has a host that works. clicknupload. DownloadHostInspector approved!

  • DownloadHostInspector: Why are all the download hosts trash? none of them let you download it
  • Qua4ratic:

    clicknupload link plz

  • ppoo:

    Please, can you add "Real Time with Bill Maher S22E11" ??

  • theahtisham:

    Kindly upload Ep. 3 and 4 as well.

Archives